  0
SECTION
  2
HEADER
  9
$ACADVER
  1
AC1024
  9
$ACADMAINTVER
 70
   109
  9
$DWGCODEPAGE
  3
ANSI_932
  9
$LASTSAVEDBY
  1
kuramoct
  9
$INSBASE
 10
0.0
 20
0.0
 30
0.0
  9
$EXTMIN
 10
-186.510785
 20
-138.985941
 30
0.0
  9
$EXTMAX
 10
197.491193
 20
137.514384
 30
0.0
  9
$LIMMIN
 10
-420.5
 20
-297.0
  9
$LIMMAX
 10
420.5
 20
297.0
  9
$ORTHOMODE
 70
     0
  9
$REGENMODE
 70
     1
  9
$FILLMODE
 70
     1
  9
$QTEXTMODE
 70
     0
  9
$MIRRTEXT
 70
     1
  9
$LTSCALE
 40
1.0
  9
$ATTMODE
 70
     1
  9
$TEXTSIZE
 40
1.0
  9
$TRACEWID
 40
0.05
  9
$TEXTSTYLE
  7
STANDARD
  9
$CLAYER
  8
0
  9
$CELTYPE
  6
CONTINUOUS
  9
$CECOLOR
 62
   256
  9
$CELTSCALE
 40
1.0
  9
$DISPSILH
 70
     0
  9
$DIMSCALE
 40
1.0
  9
$DIMASZ
 40
2.0
  9
$DIMEXO
 40
1.0
  9
$DIMDLI
 40
0.38
  9
$DIMRND
 40
0.0
  9
$DIMDLE
 40
0.0
  9
$DIMEXE
 40
2.0
  9
$DIMTP
 40
0.0
  9
$DIMTM
 40
0.0
  9
$DIMTXT
 40
3.5
  9
$DIMCEN
 40
0.09
  9
$DIMTSZ
 40
0.0
  9
$DIMTOL
 70
     0
  9
$DIMLIM
 70
     0
  9
$DIMTIH
 70
     0
  9
$DIMTOH
 70
     0
  9
$DIMSE1
 70
     0
  9
$DIMSE2
 70
     0
  9
$DIMTAD
 70
     1
  9
$DIMZIN
 70
     0
  9
$DIMBLK
  1

  9
$DIMASO
 70
     1
  9
$DIMSHO
 70
     1
  9
$DIMPOST
  1

  9
$DIMAPOST
  1

  9
$DIMALT
 70
     0
  9
$DIMALTD
 70
     2
  9
$DIMALTF
 40
25.4
  9
$DIMLFAC
 40
1.0
  9
$DIMTOFL
 70
     0
  9
$DIMTVP
 40
0.0
  9
$DIMTIX
 70
     0
  9
$DIMSOXD
 70
     0
  9
$DIMSAH
 70
     0
  9
$DIMBLK1
  1

  9
$DIMBLK2
  1

  9
$DIMSTYLE
  2
Standard
  9
$DIMCLRD
 70
     0
  9
$DIMCLRE
 70
     0
  9
$DIMCLRT
 70
     0
  9
$DIMTFAC
 40
1.0
  9
$DIMGAP
 40
0.5
  9
$DIMJUST
 70
     0
  9
$DIMSD1
 70
     0
  9
$DIMSD2
 70
     0
  9
$DIMTOLJ
 70
     1
  9
$DIMTZIN
 70
     0
  9
$DIMALTZ
 70
     0
  9
$DIMALTTZ
 70
     0
  9
$DIMUPT
 70
     0
  9
$DIMDEC
 70
     3
  9
$DIMTDEC
 70
     4
  9
$DIMALTU
 70
     2
  9
$DIMALTTD
 70
     2
  9
$DIMTXSTY
  7
STANDARD
  9
$DIMAUNIT
 70
     0
  9
$DIMADEC
 70
     0
  9
$DIMALTRND
 40
0.0
  9
$DIMAZIN
 70
     0
  9
$DIMDSEP
 70
     0
  9
$DIMATFIT
 70
     3
  9
$DIMFRAC
 70
     0
  9
$DIMLDRBLK
  1

  9
$DIMLUNIT
 70
     2
  9
$DIMLWD
 70
     0
  9
$DIMLWE
 70
     0
  9
$DIMTMOVE
 70
     0
  9
$DIMFXL
 40
1.0
  9
$DIMFXLON
 70
     0
  9
$DIMJOGANG
 40
0.7853981633974483
  9
$DIMTFILL
 70
     0
  9
$DIMTFILLCLR
 70
     0
  9
$DIMARCSYM
 70
     0
  9
$DIMLTYPE
  6

  9
$DIMLTEX1
  6

  9
$DIMLTEX2
  6

  9
$DIMTXTDIRECTION
 70
     0
  9
$LUNITS
 70
     2
  9
$LUPREC
 70
     4
  9
$SKETCHINC
 40
0.1
  9
$FILLETRAD
 40
0.0
  9
$AUNITS
 70
     0
  9
$AUPREC
 70
     0
  9
$MENU
  1
acad
  9
$ELEVATION
 40
0.0
  9
$PELEVATION
 40
0.0
  9
$THICKNESS
 40
0.0
  9
$LIMCHECK
 70
     0
  9
$CHAMFERA
 40
0.0
  9
$CHAMFERB
 40
0.0
  9
$CHAMFERC
 40
0.0
  9
$CHAMFERD
 40
0.0
  9
$SKPOLY
 70
     0
  9
$TDCREATE
 40
2456210.860629549
  9
$TDUCREATE
 40
2456210.485629549
  9
$TDUPDATE
 40
2456273.727699965
  9
$TDUUPDATE
 40
2456273.352699966
  9
$TDINDWG
 40
0.0025026273
  9
$TDUSRTIMER
 40
0.0025022685
  9
$USRTIMER
 70
     1
  9
$ANGBASE
 50
0.0
  9
$ANGDIR
 70
     0
  9
$PDMODE
 70
     0
  9
$PDSIZE
 40
0.0
  9
$PLINEWID
 40
0.0
  9
$SPLFRAME
 70
     0
  9
$SPLINETYPE
 70
     6
  9
$SPLINESEGS
 70
     8
  9
$HANDSEED
  5
4F0
  9
$SURFTAB1
 70
     6
  9
$SURFTAB2
 70
     6
  9
$SURFTYPE
 70
     6
  9
$SURFU
 70
     6
  9
$SURFV
 70
     6
  9
$UCSBASE
  2

  9
$UCSNAME
  2

  9
$UCSORG
 10
0.0
 20
0.0
 30
0.0
  9
$UCSXDIR
 10
1.0
 20
0.0
 30
0.0
  9
$UCSYDIR
 10
0.0
 20
1.0
 30
0.0
  9
$UCSORTHOREF
  2

  9
$UCSORTHOVIEW
 70
     0
  9
$UCSORGTOP
 10
0.0
 20
0.0
 30
0.0
  9
$UCSORGBOTTOM
 10
0.0
 20
0.0
 30
0.0
  9
$UCSORGLEFT
 10
0.0
 20
0.0
 30
0.0
  9
$UCSORGRIGHT
 10
0.0
 20
0.0
 30
0.0
  9
$UCSORGFRONT
 10
0.0
 20
0.0
 30
0.0
  9
$UCSORGBACK
 10
0.0
 20
0.0
 30
0.0
  9
$PUCSBASE
  2

  9
$PUCSNAME
  2

  9
$PUCSORG
 10
0.0
 20
0.0
 30
0.0
  9
$PUCSXDIR
 10
1.0
 20
0.0
 30
0.0
  9
$PUCSYDIR
 10
0.0
 20
1.0
 30
0.0
  9
$PUCSORTHOREF
  2

  9
$PUCSORTHOVIEW
 70
     0
  9
$PUCSORGTOP
 10
0.0
 20
0.0
 30
0.0
  9
$PUCSORGBOTTOM
 10
0.0
 20
0.0
 30
0.0
  9
$PUCSORGLEFT
 10
0.0
 20
0.0
 30
0.0
  9
$PUCSORGRIGHT
 10
0.0
 20
0.0
 30
0.0
  9
$PUCSORGFRONT
 10
0.0
 20
0.0
 30
0.0
  9
$PUCSORGBACK
 10
0.0
 20
0.0
 30
0.0
  9
$USERI1
 70
     0
  9
$USERI2
 70
     0
  9
$USERI3
 70
     0
  9
$USERI4
 70
     0
  9
$USERI5
 70
     0
  9
$USERR1
 40
0.0
  9
$USERR2
 40
0.0
  9
$USERR3
 40
0.0
  9
$USERR4
 40
0.0
  9
$USERR5
 40
0.0
  9
$WORLDVIEW
 70
     1
  9
$SHADEDGE
 70
     3
  9
$SHADEDIF
 70
    70
  9
$TILEMODE
 70
     1
  9
$MAXACTVP
 70
    16
  9
$PINSBASE
 10
0.0
 20
0.0
 30
0.0
  9
$PLIMCHECK
 70
     0
  9
$PEXTMIN
 10
1.000000000000000E+20
 20
1.000000000000000E+20
 30
1.000000000000000E+20
  9
$PEXTMAX
 10
-1.000000000000000E+20
 20
-1.000000000000000E+20
 30
-1.000000000000000E+20
  9
$PLIMMIN
 10
0.0
 20
0.0
  9
$PLIMMAX
 10
12.0
 20
9.0
  9
$UNITMODE
 70
     0
  9
$VISRETAIN
 70
     0
  9
$PLINEGEN
 70
     1
  9
$PSLTSCALE
 70
     0
  9
$TREEDEPTH
 70
  3020
  9
$CMLSTYLE
  2
Standard
  9
$CMLJUST
 70
     0
  9
$CMLSCALE
 40
1.0
  9
$PROXYGRAPHICS
 70
     1
  9
$MEASUREMENT
 70
     0
  9
$CELWEIGHT
370
     0
  9
$ENDCAPS
280
     0
  9
$JOINSTYLE
280
     0
  9
$LWDISPLAY
290
     0
  9
$INSUNITS
 70
     0
  9
$HYPERLINKBASE
  1

  9
$STYLESHEET
  1

  9
$XEDIT
290
     1
  9
$CEPSNTYPE
380
     0
  9
$PSTYLEMODE
290
     1
  9
$FINGERPRINTGUID
  2

  9
$VERSIONGUID
  2
{0C294F6B-F8DE-4AEA-999B-2DF7D3E0C7A6}
  9
$EXTNAMES
290
     1
  9
$PSVPSCALE
 40
0.0
  9
$OLESTARTUP
290
     0
  9
$SORTENTS
280
   127
  9
$INDEXCTL
280
     0
  9
$HIDETEXT
280
     0
  9
$XCLIPFRAME
280
     0
  9
$HALOGAP
280
     0
  9
$OBSCOLOR
 70
   257
  9
$OBSLTYPE
280
     0
  9
$INTERSECTIONDISPLAY
280
     0
  9
$INTERSECTIONCOLOR
 70
   257
  9
$DIMASSOC
280
     1
  9
$PROJECTNAME
  1

  9
$CAMERADISPLAY
290
     0
  9
$LENSLENGTH
 40
50.0
  9
$CAMERAHEIGHT
 40
0.0
  9
$STEPSPERSEC
 40
2.0
  9
$STEPSIZE
 40
6.0
  9
$3DDWFPREC
 40
2.0
  9
$PSOLWIDTH
 40
0.25
  9
$PSOLHEIGHT
 40
4.0
  9
$LOFTANG1
 40
1.570796326794896
  9
$LOFTANG2
 40
1.570796326794896
  9
$LOFTMAG1
 40
0.0
  9
$LOFTMAG2
 40
0.0
  9
$LOFTPARAM
 70
     7
  9
$LOFTNORMALS
280
     1
  9
$LATITUDE
 40
37.795
  9
$LONGITUDE
 40
-122.394
  9
$NORTHDIRECTION
 40
0.0
  9
$TIMEZONE
 70
 -8000
  9
$LIGHTGLYPHDISPLAY
280
     1
  9
$TILEMODELIGHTSYNCH
280
     1
  9
$CMATERIAL
347
3D7
  9
$SOLIDHIST
280
     0
  9
$SHOWHIST
280
     1
  9
$DWFFRAME
280
     2
  9
$DGNFRAME
280
     0
  9
$REALWORLDSCALE
290
     1
  9
$INTERFERECOLOR
 62
     1
  9
$INTERFEREOBJVS
345
3F9
  9
$INTERFEREVPVS
346
3F6
  9
$CSHADOW
280
     0
  9
$SHADOWPLANELOCATION
 40
0.0
  0
ENDSEC
  0
SECTION
  2
CLASSES
  0
CLASS
  1
IMAGE
  2
AcDbRasterImage
  3
ISM
 90
     2175
 91
        0
280
     0
281
     1
  0
CLASS
  1
DICTIONARYVAR
  2
AcDbDictionaryVar
  3
ObjectDBX Classes
 90
        0
 91
       18
280
     0
281
     0
  0
CLASS
  1
RASTERVARIABLES
  2
AcDbRasterVariables
  3
ISM
 90
        0
 91
        0
280
     0
281
     0
  0
CLASS
  1
IMAGEDEF
  2
AcDbRasterImageDef
  3
ISM
 90
        0
 91
        0
280
     0
281
     0
  0
CLASS
  1
IMAGEDEF_REACTOR
  2
AcDbRasterImageDefReactor
  3
ISM
 90
        1
 91
        0
280
     0
281
     0
  0
CLASS
  1
IDBUFFER
  2
AcDbIdBuffer
  3
ObjectDBX Classes
 90
        0
 91
        0
280
     0
281
     0
  0
CLASS
  1
SPATIAL_FILTER
  2
AcDbSpatialFilter
  3
ObjectDBX Classes
 90
        0
 91
        0
280
     0
281
     0
  0
CLASS
  1
SORTENTSTABLE
  2
AcDbSortentsTable
  3
ObjectDBX Classes
 90
        0
 91
        0
280
     0
281
     0
  0
CLASS
  1
LAYER_INDEX
  2
AcDbLayerIndex
  3
ObjectDBX Classes
 90
        0
 91
        0
280
     0
281
     0
  0
CLASS
  1
SPATIAL_INDEX
  2
AcDbSpatialIndex
  3
ObjectDBX Classes
 90
        0
 91
        0
280
     0
281
     0
  0
CLASS
  1
OBJECT_PTR
  2
CAseDLPNTableRecord
  3
"ASE-LPNTableRecord"
 90
        1
 91
        0
280
     0
281
     0
  0
CLASS
  1
PLOTSETTINGS
  2
AcDbPlotSettings
  3
ObjectDBX Classes
 90
        0
 91
        0
280
     0
281
     0
  0
CLASS
  1
ACDBDICTIONARYWDFLT
  2
AcDbDictionaryWithDefault
  3
ObjectDBX Classes
 90
        0
 91
        1
280
     0
281
     0
  0
CLASS
  1
WIPEOUT
  2
AcDbWipeout
  3
WipeOut|Product Desc: Object Enabler for WipeOut entity | Company: Autodesk, Inc. | WEB Address: www.autodesk.com
 90
     2175
 91
        0
280
     0
281
     1
  0
CLASS
  1
WIPEOUTVARIABLES
  2
AcDbWipeoutVariables
  3
"WipeOut|Product Desc:     WipeOut Dbx Application|Company:          Autodesk, Inc.|WEB Address:      www.autodesk.com"
 90
        0
 91
        0
280
     0
281
     0
  0
CLASS
  1
RTEXT
  2
RText
  3
RText|AutoCAD Express Tool|expresstools@autodesk.com
 90
        0
 91
        0
280
     0
281
     1
  0
CLASS
  1
ARCALIGNEDTEXT
  2
AcDbArcAlignedText
  3
ATEXT|AutoCAD Express Tool|expresstools@autodesk.com
 90
        0
 91
        0
280
     0
281
     1
  0
CLASS
  1
MATERIAL
  2
AcDbMaterial
  3
ObjectDBX Classes
 90
     1153
 91
        3
280
     0
281
     0
  0
CLASS
  1
VISUALSTYLE
  2
AcDbVisualStyle
  3
ObjectDBX Classes
 90
     4095
 91
       24
280
     0
281
     0
  0
CLASS
  1
TABLESTYLE
  2
AcDbTableStyle
  3
ObjectDBX Classes
 90
     4095
 91
        1
280
     0
281
     0
  0
CLASS
  1
SCALE
  2
AcDbScale
  3
ObjectDBX Classes
 90
     1153
 91
       17
280
     0
281
     0
  0
CLASS
  1
MLEADERSTYLE
  2
AcDbMLeaderStyle
  3
ACDB_MLEADERSTYLE_CLASS
 90
     4095
 91
        1
280
     0
281
     0
  0
CLASS
  1
ACDBSECTIONVIEWSTYLE
  2
AcDbSectionViewStyle
  3
ObjectDBX Classes
 90
     1025
 91
        1
280
     0
281
     0
  0
CLASS
  1
ACDBDETAILVIEWSTYLE
  2
AcDbDetailViewStyle
  3
ObjectDBX Classes
 90
     1025
 91
        1
280
     0
281
     0
  0
CLASS
  1
ACME_DOCUMENT
  2
AcMeDbDoc
  3
AcMeServices
 90
     1024
 91
        2
280
     0
281
     0
  0
CLASS
  1
AMGSETTINGSOBJ
  2
AmgSettingsObj
  3
"AcadM|Product Description: AutoCAD Mechanical|Company: Autodesk, Inc."
 90
     1024
 91
        2
280
     0
281
     0
  0
CLASS
  1
ACMESCOPE
  2
AcMeScope
  3
AcMeServices
 90
     1024
 91
        1
280
     0
281
     0
  0
CLASS
  1
ACMECOMMANDHISTORY
  2
AcMeCommandHistory
  3
AcMeServices
 90
     1024
 91
        1
280
     0
281
     0
  0
CLASS
  1
ACIMSYSVARMAN
  2
AcImSysVarManager
  3
AcMeServices
 90
     1024
 91
        3
280
     0
281
     0
  0
CLASS
  1
ACIMINTSYSVAR
  2
AcImIntSysVar
  3
AcMeServices
 90
     1024
 91
        2
280
     0
281
     0
  0
CLASS
  1
ACMESTATEMGR
  2
AcMeStateMgr
  3
AcMeServices
 90
     1024
 91
        1
280
     0
281
     0
  0
CLASS
  1
ACDBENTITYCACHE
  2
AcMeEntityCache
  3
AcMeServices
 90
     1024
 91
        1
280
     0
281
     0
  0
CLASS
  1
ACGREFMASTER
  2
AcGrefMaster
  3
AcAttribServices
 90
     1024
 91
        1
280
     0
281
     0
  0
CLASS
  1
ACME_DATABASE
  2
AcMeDbDatabase
  3
AcMeServices
 90
     1024
 91
        1
280
     0
281
     0
  0
CLASS
  1
ACRFINSADJUSTERMGR
  2
AcRfInsAdjusterMgr
  3
AcMeServices
 90
     1024
 91
        1
280
     0
281
     0
  0
CLASS
  1
ACGREFACADMASTER
  2
AcGrefacadMaster
  3
AcGrefServices
 90
     1024
 91
        1
280
     0
281
     0
  0
CLASS
  1
AMDTMENUSTATEMGR
  2
AmdtMenuStateMgr
  3
McadcomServices
 90
     1024
 91
        1
280
     0
281
     0
  0
CLASS
  1
AMDTMCOMMENUSTATE
  2
AmdtMcomMenuState
  3
McadcomServices
 90
     1024
 91
        1
280
     0
281
     0
  0
CLASS
  1
AMIMASTER
  2
AmiMaster
  3
AmiServices
 90
     1024
 91
        1
280
     0
281
     0
  0
CLASS
  1
MAPIAMMOUDLE
  2
MApiAmModule
  3
MApiAmServices
 90
     1024
 91
        1
280
     0
281
     0
  0
CLASS
  1
ACIMSTRSYSVAR
  2
AcImStrSysVar
  3
AcMeServices
 90
     1024
 91
        5
280
     0
281
     0
  0
CLASS
  1
AMDTAMMENUSTATE
  2
AmdtAmMenuState
  3
DesignerAssemblies
 90
     1024
 91
        1
280
     0
281
     0
  0
CLASS
  1
ACAMPROJECT
  2
AcAmProject
  3
DesignerAssemblies
 90
     1024
 91
        1
280
     0
281
     0
  0
CLASS
  1
ACAMGRCOMPDEF
  2
AcAmGrCompDef
  3
DesignerAssemblies
 90
     1024
 91
        1
280
     0
281
     0
  0
CLASS
  1
ACAMCOMPDEF
  2
AcAmCompDef
  3
DesignerAssemblies
 90
     1024
 91
        1
280
     0
281
     0
  0
CLASS
  1
ACAMCOMPDEFMGR
  2
AcAmCompDefMgr
  3
DesignerAssemblies
 90
     1024
 91
        1
280
     0
281
     0
  0
CLASS
  1
AMCONTEXTMGR
  2
AcAmContextMgr
  3
DesignerAssemblies
 90
     1024
 91
        1
280
     0
281
     0
  0
CLASS
  1
ACAMCONTEXTMODELER
  2
AcAmContextModeler
  3
DesignerAssemblies
 90
     1024
 91
        1
280
     0
281
     0
  0
CLASS
  1
ACMDATADICTIONARY
  2
AcmDataDictionary
  3
"AcmSymBB|Product Description: AutoCAD Mechanical|Company: Autodesk, Inc."
 90
     1024
 91
        1
280
     0
281
     0
  0
CLASS
  1
ACAMGRCOMPDEFSET
  2
AcAmGrCompDefSet
  3
DesignerAssemblies
 90
     1024
 91
        1
280
     0
281
     0
  0
CLASS
  1
AMDTBROWSERDBTAB
  2
AmdtBrowserDbTab
  3
McadcomServices
 90
     1024
 91
        1
280
     0
281
     0
  0
CLASS
  1
CBROWSERAPPOBJECT
  2
CBrowserAppObject
  3
McadcomServices
 90
     1024
 91
        2
280
     0
281
     0
  0
CLASS
  1
DM_PLACEHOLDER
  2
AcDmSelsetPlaceholder
  3
McadcomServices
 90
     1024
 91
        1
280
     0
281
     0
  0
CLASS
  1
ACMSTANDARDANSI
  2
AcmStandardANSI
  3
"Amdt_StdImp|Product Description: AutoCAD Mechanical|Company: Autodesk, Inc."
 90
     1024
 91
        1
280
     0
281
     0
  0
CLASS
  1
ACMSURFSTANDARDANSI
  2
AcmSurfTextStdANSI
  3
"Amdt_StdImp|Product Description: AutoCAD Mechanical|Company: Autodesk, Inc."
 90
     1024
 91
        1
280
     0
281
     0
  0
CLASS
  1
ACMFCFSTANDARDANSI
  2
AcmFCFStdANSI
  3
"Amdt_StdImp|Product Description: AutoCAD Mechanical|Company: Autodesk, Inc."
 90
     1024
 91
        1
280
     0
281
     0
  0
CLASS
  1
ACMWELDSTANDARDANSI
  2
AcmWeldingStdANSI
  3
"Amdt_StdImp|Product Description: AutoCAD Mechanical|Company: Autodesk, Inc."
 90
     1024
 91
        1
280
     0
281
     0
  0
CLASS
  1
ACMIDSTANDARDANSI
  2
AcmIdStdANSI
  3
"Amdt_StdImp|Product Description: AutoCAD Mechanical|Company: Autodesk, Inc."
 90
     1024
 91
        1
280
     0
281
     0
  0
CLASS
  1
ACMDATUMSTANDARDANSI
  2
AcmDatumStdANSI
  3
"Amdt_StdImp|Product Description: AutoCAD Mechanical|Company: Autodesk, Inc."
 90
     1024
 91
        1
280
     0
281
     0
  0
CLASS
  1
ACMBOMSTANDARDANSI
  2
AcmBOMStdANSI
  3
"Amdt_StdImp|Product Description: AutoCAD Mechanical|Company: Autodesk, Inc."
 90
     1024
 91
        1
280
     0
281
     0
  0
CLASS
  1
ACMDETAILSTANDARDANSI
  2
AmdtDetailSymStdANSI
  3
"Amdt_StdImp|Product Description: AutoCAD Mechanical|Company: Autodesk, Inc."
 90
     1024
 91
        1
280
     0
281
     0
  0
CLASS
  1
ACMSECTIONSTANDARDANSI
  2
AmdtSectionSymStdANSI
  3
"Amdt_StdImp|Product Description: AutoCAD Mechanical|Company: Autodesk, Inc."
 90
     1024
 91
        1
280
     0
281
     0
  0
CLASS
  1
ACMCENTERLINESTANDARDANSI
  2
AmdtCenterLineStdANSI
  3
"Amdt_StdImp|Product Description: AutoCAD Mechanical|Company: Autodesk, Inc."
 90
     1024
 91
        1
280
     0
281
     0
  0
CLASS
  1
ACMTHREADLINESTANDARDANSI
  2
AmdtThreadLineStdANSI
  3
"Amdt_StdImp|Product Description: AutoCAD Mechanical|Company: Autodesk, Inc."
 90
     1024
 91
        1
280
     0
281
     0
  0
CLASS
  1
ACMNOTESTANDARDANSI
  2
AmdtNoteStdANSI
  3
"Amdt_StdImp|Product Description: AutoCAD Mechanical|Company: Autodesk, Inc."
 90
     1024
 91
        1
280
     0
281
     0
  0
CLASS
  1
ACMTAPERSTANDARDANSI
  2
AcmTaperStdANSI
  3
"Amdt_StdImp|Product Description: AutoCAD Mechanical|Company: Autodesk, Inc."
 90
     1024
 91
        1
280
     0
281
     0
  0
CLASS
  1
ACMANOOTATIONVIEWSTANDARDANSI
  2
AmdtAnViewStdANSI
  3
"Amdt_StdImp|Product Description: AutoCAD Mechanical|Company: Autodesk, Inc."
 90
     1024
 91
        1
280
     0
281
     0
  0
CLASS
  1
ACAMGLAYSTD
  2
AcAmgLayStd
  3
"AmgLay|Product Description: AutoCAD Mechanical|Company: Autodesk, Inc."
 90
     1024
 91
        1
280
     0
281
     0
  0
CLASS
  1
ACAMGDIMSTD
  2
AcAmgDimStd
  3
"AmgDim|Product Description: AutoCAD Mechanical|Company: Autodesk, Inc."
 90
     1024
 91
        1
280
     0
281
     0
  0
CLASS
  1
AMGOBJPROPCFG
  2
AmgObjPropCfg
  3
"AmgLay|Product Description: AutoCAD Mechanical|Company: Autodesk, Inc."
 90
     1024
 91
        1
280
     0
281
     0
  0
CLASS
  1
ACAMGHOLECHARTSTDANSI
  2
AcAmgHoleChartStdANSI
  3
AmgDim|Product Description: AutoCAD Mechanical|Company: Autodesk, Inc.
 90
     1024
 91
        1
280
     0
281
     0
  0
CLASS
  1
ACAMGTITLESTD
  2
AcAmgTitleStd
  3
"AmgTitle|Product Description: AutoCAD Mechanical|Company: Autodesk, Inc."
 90
     1024
 91
        1
280
     0
281
     0
  0
CLASS
  1
AMDTNOTETEMPLATEDB
  2
AmdtNoteTemplateDB
  3
AcmSymBB|Product Description: AutoCAD Mechanical|Company: Autodesk, Inc.
 90
     1024
 91
        7
280
     0
281
     0
  0
CLASS
  1
ACAMGFILTERDAT
  2
AcAmgFilterDat
  3
"AcadM|Product Description: AutoCAD Mechanical|Company: Autodesk, Inc."
 90
     1024
 91
       12
280
     0
281
     0
  0
CLASS
  1
CAMSSTRUCTBTNSTATE
  2
StructBtnState
  3
DesignerAssemblies
 90
     1024
 91
        1
280
     0
281
     0
  0
CLASS
  1
CELLSTYLEMAP
  2
AcDbCellStyleMap
  3
ObjectDBX Classes
 90
     1152
 91
        1
280
     0
281
     0
  0
ENDSEC
  0
SECTION
  2
TABLES
  0
TABLE
  2
VPORT
  5
6
330
0
100
AcDbSymbolTable
 70
     1
  0
VPORT
  5
3D5
330
6
100
AcDbSymbolTableRecord
100
AcDbViewportTableRecord
  2
*Active
 70
     0
 10
0.0
 20
0.0
 11
1.0
 21
1.0
 12
-22.45554653879202
 22
-21.66644500025222
 13
0.0
 23
0.0
 14
1.0
 24
1.0
 15
0.0
 25
0.0
 16
0.0
 26
0.0
 36
1.0
 17
0.0
 27
0.0
 37
0.0
 40
384.5405742661487
 41
1.824705882352941
 42
50.0
 43
0.0
 44
0.0
 50
0.0
 51
0.0
 71
     0
 72
   500
 73
     1
 74
     1
 75
     0
 76
     0
 77
     0
 78
     0
281
     0
 65
     0
110
0.0
120
0.0
130
0.0
111
1.0
121
0.0
131
0.0
112
0.0
122
1.0
132
0.0
 79
     0
146
0.0
348
3F5
 60
     3
 61
     5
292
     1
282
     1
141
0.0
142
0.0
 63
   250
421
  3355443
1001
ACAD_NAV_VCDISPLAY
1070
     3
  0
ENDTAB
  0
TABLE
  2
LTYPE
  5
3
330
0
100
AcDbSymbolTable
 70
    13
  0
LTYPE
  5
C
330
3
100
AcDbSymbolTableRecord
100
AcDbLinetypeTableRecord
  2
ByBlock
 70
     0
  3

 72
    65
 73
     0
 40
0.0
  0
LTYPE
  5
D
330
3
100
AcDbSymbolTableRecord
100
AcDbLinetypeTableRecord
  2
ByLayer
 70
     0
  3

 72
    65
 73
     0
 40
0.0
  0
LTYPE
  5
E
330
3
100
AcDbSymbolTableRecord
100
AcDbLinetypeTableRecord
  2
CONTINUOUS
 70
     0
  3
Solid line
 72
    65
 73
     0
 40
0.0
  0
LTYPE
  5
F
330
3
100
AcDbSymbolTableRecord
100
AcDbLinetypeTableRecord
  2
DASHED
 70
     0
  3
__ __ __ __ __ __ __ __ __ __ __ __ __ __ __
 72
    65
 73
     2
 40
2.0
 49
1.199999999999999
 74
     0
 49
-0.8
 74
     0
  0
LTYPE
  5
10
330
3
100
AcDbSymbolTableRecord
100
AcDbLinetypeTableRecord
  2
CENTER
 70
     0
  3
____ _ ____ _ ____ _ ____ _ ____ _ ____ _ ____
 72
    65
 73
     4
 40
12.0
 49
9.0
 74
     0
 49
-1.0
 74
     0
 49
1.0
 74
     0
 49
-1.0
 74
     0
  0
LTYPE
  5
11
330
3
100
AcDbSymbolTableRecord
100
AcDbLinetypeTableRecord
  2
HIDDEN
 70
     0
  3
_ _ _ _ _ _ _ _ _ _ _ _ _ _ _ _ _ _ _ _ _ _ _
 72
    65
 73
     2
 40
3.2
 49
2.399999999999999
 74
     0
 49
-0.8
 74
     0
  0
LTYPE
  5
12
330
3
100
AcDbSymbolTableRecord
100
AcDbLinetypeTableRecord
  2
PHANTOM
 70
     0
  3
_____ _ _ _____ _ _ _____ _ _ _____ _ _ _____
 72
    65
 73
     6
 40
13.5
 49
9.0
 74
     0
 49
-1.0
 74
     0
 49
1.0
 74
     0
 49
-0.5
 74
     0
 49
1.0
 74
     0
 49
-1.0
 74
     0
  0
LTYPE
  5
13
330
3
100
AcDbSymbolTableRecord
100
AcDbLinetypeTableRecord
  2
DOT
 70
     0
  3
...............................................
 72
    65
 73
     2
 40
1.0
 49
0.5
 74
     0
 49
-0.5
 74
     0
  0
LTYPE
  5
14
330
3
100
AcDbSymbolTableRecord
100
AcDbLinetypeTableRecord
  2
DASHDOT
 70
     0
  3
__ . __ . __ . __ . __ . __ . __ . __ . __ . __
 72
    65
 73
     4
 40
8.0
 49
5.0
 74
     0
 49
-1.0
 74
     0
 49
1.0
 74
     0
 49
-1.0
 74
     0
  0
LTYPE
  5
41F
330
3
100
AcDbSymbolTableRecord
100
AcDbLinetypeTableRecord
  2
PHANTOM2
 70
     0
  3
Phantom (.5x) ___ _ _ ___ _ _ ___ _ _ ___ _ _
 72
    65
 73
     6
 40
1.25
 49
0.625
 74
     0
 49
-0.125
 74
     0
 49
0.125
 74
     0
 49
-0.125
 74
     0
 49
0.125
 74
     0
 49
-0.125
 74
     0
  0
LTYPE
  5
46E
330
3
100
AcDbSymbolTableRecord
100
AcDbLinetypeTableRecord
  2
CENTER2
 70
     0
  3
Center (.5x) ___ _ ___ _ ___ _ ___ _ ___ _ ___
 72
    65
 73
     4
 40
1.125
 49
0.75
 74
     0
 49
-0.125
 74
     0
 49
0.125
 74
     0
 49
-0.125
 74
     0
  0
LTYPE
  5
46F
330
3
100
AcDbSymbolTableRecord
100
AcDbLinetypeTableRecord
  2
HIDDEN2
 70
     0
  3
Hidden (.5x) _ _ _ _ _ _ _ _ _ _ _ _ _ _ _ _ _
 72
    65
 73
     2
 40
0.1875
 49
0.125
 74
     0
 49
-0.0625
 74
     0
  0
LTYPE
  5
47D
330
3
100
AcDbSymbolTableRecord
100
AcDbLinetypeTableRecord
  2
ACANSTGB
 70
     0
  3
__ . . __ . .
 72
    65
 73
     6
 40
0.35433070866
 49
0.15748031496
 74
     0
 49
-0.03937007874
 74
     0
 49
0.03937007874
 74
     0
 49
-0.03937007874
 74
     0
 49
0.03937007874
 74
     0
 49
-0.03937007874
 74
     0
  0
LTYPE
  5
47E
330
3
100
AcDbSymbolTableRecord
100
AcDbLinetypeTableRecord
  2
ACANSTGL
 70
     0
  3
_ _ _ _ _
 72
    65
 73
     2
 40
0.11811023622
 49
0.07874015748
 74
     0
 49
-0.03937007874
 74
     0
  0
ENDTAB
  0
TABLE
  2
LAYER
  5
1
330
0
100
AcDbSymbolTable
 70
     4
  0
LAYER
  5
15
102
{ACAD_XDICTIONARY
360
49E
102
}
330
1
100
AcDbSymbolTableRecord
100
AcDbLayerTableRecord
  2
0
 70
     0
 62
     7
  6
CONTINUOUS
370
    -3
390
3CC
347
3E7
  0
LAYER
  5
16
102
{ACAD_XDICTIONARY
360
4A0
102
}
330
1
100
AcDbSymbolTableRecord
100
AcDbLayerTableRecord
  2
1
 70
     0
 62
     7
  6
CONTINUOUS
370
    -3
390
3CC
347
3E7
  0
LAYER
  5
17
102
{ACAD_XDICTIONARY
360
4A2
102
}
330
1
100
AcDbSymbolTableRecord
100
AcDbLayerTableRecord
  2
2
 70
     0
 62
     7
  6
CONTINUOUS
370
    -3
390
3CC
347
3E7
  0
LAYER
  5
18
102
{ACAD_XDICTIONARY
360
4A4
102
}
330
1
100
AcDbSymbolTableRecord
100
AcDbLayerTableRecord
  2
3
 70
     0
 62
     7
  6
CONTINUOUS
370
    -3
390
3CC
347
3E7
  0
ENDTAB
  0
TABLE
  2
STYLE
  5
2
330
0
100
AcDbSymbolTable
 70
     3
  0
STYLE
  5
1B
330
2
100
AcDbSymbolTableRecord
100
AcDbTextStyleTableRecord
  2
STANDARD
 70
     0
 40
0.0
 41
1.0
 50
0.0
 71
     0
 42
1.0
  3
txt
  4
BIGFONT
  0
STYLE
  5
47B
330
2
100
AcDbSymbolTableRecord
100
AcDbTextStyleTableRecord
  2
ACANSTS
 70
     0
 40
1.0
 41
1.0
 50
0.0
 71
     0
 42
0.2
  3
romans.shx
  4
extfont.shx
  0
STYLE
  5
47C
330
2
100
AcDbSymbolTableRecord
100
AcDbTextStyleTableRecord
  2
ACANSGDT
 70
     0
 40
0.0
 41
1.0
 50
0.0
 71
     0
 42
0.2
  3
amgdt.shx
  4

  0
ENDTAB
  0
TABLE
  2
VIEW
  5
4
330
0
100
AcDbSymbolTable
 70
     0
  0
ENDTAB
  0
TABLE
  2
UCS
  5
5
330
0
100
AcDbSymbolTable
 70
     0
  0
ENDTAB
  0
TABLE
  2
APPID
  5
7
330
0
100
AcDbSymbolTable
 70
     8
  0
APPID
  5
1A
330
7
100
AcDbSymbolTableRecord
100
AcDbRegAppTableRecord
  2
ACAD
 70
     0
  0
APPID
  5
42E
330
7
100
AcDbSymbolTableRecord
100
AcDbRegAppTableRecord
  2
MCAD_NO_VIS
 70
     0
  0
APPID
  5
42F
330
7
100
AcDbSymbolTableRecord
100
AcDbRegAppTableRecord
  2
ACAD_TEMP_GRAPHIC
 70
     0
  0
APPID
  5
439
330
7
100
AcDbSymbolTableRecord
100
AcDbRegAppTableRecord
  2
ACATTRIBSERVICES
 70
     0
  0
APPID
  5
451
330
7
100
AcDbSymbolTableRecord
100
AcDbRegAppTableRecord
  2
DESIGNERASSEMBLIES
 70
     0
  0
APPID
  5
46B
330
7
100
AcDbSymbolTableRecord
100
AcDbRegAppTableRecord
  2
ACAD_DSTYLE_DIMJAG
 70
     0
  0
APPID
  5
46C
330
7
100
AcDbSymbolTableRecord
100
AcDbRegAppTableRecord
  2
ACAD_DSTYLE_DIMBREAK
 70
     0
  0
APPID
  5
486
330
7
100
AcDbSymbolTableRecord
100
AcDbRegAppTableRecord
  2
ACAD_NAV_VCDISPLAY
 70
     0
  0
ENDTAB
  0
TABLE
  2
DIMSTYLE
  5
8
330
0
100
AcDbSymbolTable
 70
     8
100
AcDbDimStyleTable
 71
     0
  0
DIMSTYLE
105
29
102
{ACAD_REACTORS
330
1C7
330
22F
330
239
330
23A
330
270
330
232
102
}
330
8
100
AcDbSymbolTableRecord
100
AcDbDimStyleTableRecord
  2
Standard
 70
     0
 41
2.0
 42
1.0
 44
2.0
 73
     0
 74
     0
 77
     1
140
3.5
147
0.5
271
     3
340
1B
  0
DIMSTYLE
105
46A
102
{ACAD_REACTORS
330
45A
102
}
330
8
100
AcDbSymbolTableRecord
100
AcDbDimStyleTableRecord
  2
AM_ANSI
 70
     0
  4
mm
 41
0.12
 42
0.05
 43
0.5
 44
0.1
 47
0.1
 48
0.1
 78
     7
 79
     2
 90
     1
140
0.12
141
0.0
146
0.71
147
0.06
176
   256
177
   256
178
     2
274
     4
284
     7
340
1B
345
C
346
C
347
C
371
    -1
372
    -1
1001
ACAD_DSTYLE_DIMJAG
1070
   388
1040
1.5
1001
ACAD_DSTYLE_DIMBREAK
1070
   391
1040
0.125
  0
DIMSTYLE
105
470
330
8
100
AcDbSymbolTableRecord
100
AcDbDimStyleTableRecord
  2
AM_ANSI$3
 70
     0
  4
mm
 41
0.12
 42
0.05
 43
0.5
 44
0.1
 47
0.1
 48
0.1
 78
     7
 79
     2
 90
     1
140
0.12
141
0.0
146
0.71
147
0.06
176
   256
177
   256
178
     2
274
     4
284
     7
288
     1
289
     0
340
1B
345
C
346
C
347
C
371
    -1
372
    -1
1001
ACAD_DSTYLE_DIMBREAK
1070
   391
1040
0.125
1001
ACAD_DSTYLE_DIMJAG
1070
   388
1040
1.5
  0
DIMSTYLE
105
471
330
8
100
AcDbSymbolTableRecord
100
AcDbDimStyleTableRecord
  2
AM_ANSI$4
 70
     0
  4
mm
 41
0.12
 42
0.05
 43
0.5
 44
0.1
 47
0.1
 48
0.1
 78
     7
 79
     2
 90
     1
140
0.12
141
0.0
146
0.71
147
0.06
176
   256
177
   256
178
     2
274
     4
284
     7
288
     1
289
     0
340
1B
345
C
346
C
347
C
371
    -1
372
    -1
1001
ACAD_DSTYLE_DIMBREAK
1070
   391
1040
0.125
1001
ACAD_DSTYLE_DIMJAG
1070
   388
1040
1.5
  0
DIMSTYLE
105
472
330
8
100
AcDbSymbolTableRecord
100
AcDbDimStyleTableRecord
  2
AM_ANSI$7
 70
     0
  4
mm
 41
0.12
 42
0.05
 43
0.5
 44
0.1
 47
0.1
 48
0.1
 78
     7
 79
     2
 90
     1
140
0.12
141
0.0
146
0.71
147
0.06
176
   256
177
   256
178
     2
274
     4
284
     7
340
1B
345
C
346
C
347
C
371
    -1
372
    -1
1001
ACAD_DSTYLE_DIMBREAK
1070
   391
1040
0.125
1001
ACAD_DSTYLE_DIMJAG
1070
   388
1040
1.5
  0
DIMSTYLE
105
473
330
8
100
AcDbSymbolTableRecord
100
AcDbDimStyleTableRecord
  2
AM_ANSI$SF
 70
     0
  4
mm
 41
0.12
 42
0.05
 43
0.5
 44
0.1
 47
0.1
 48
0.1
 75
     1
 76
     1
 78
     7
 79
     2
 90
     1
140
0.12
141
0.0
146
0.71
147
0.06
176
   256
177
   256
178
     2
274
     4
284
     7
340
1B
345
C
346
C
347
C
371
    -1
372
    -1
1001
ACAD_DSTYLE_DIMBREAK
1070
   391
1040
0.125
1001
ACAD_DSTYLE_DIMJAG
1070
   388
1040
1.5
  0
DIMSTYLE
105
478
330
8
100
AcDbSymbolTableRecord
100
AcDbDimStyleTableRecord
  2
AM_ANSI$SH
 70
     0
  4
mm
 41
0.12
 42
0.05
 43
0.5
 44
0.1
 47
0.1
 48
0.1
 75
     1
 76
     1
 78
     7
 79
     2
 90
     1
140
0.12
141
0.0
146
0.71
147
0.06
173
     1
176
   256
177
   256
178
     2
274
     4
284
     7
340
1B
343
474
345
C
346
C
347
C
371
    -1
372
    -1
1001
ACAD_DSTYLE_DIMBREAK
1070
   391
1040
0.125
1001
ACAD_DSTYLE_DIMJAG
1070
   388
1040
1.5
  0
ENDTAB
  0
TABLE
  2
BLOCK_RECORD
  5
24
330
0
100
AcDbSymbolTable
 70
     9
  0
BLOCK_RECORD
  5
22
330
24
100
AcDbSymbolTableRecord
100
AcDbBlockTableRecord
  2
*Model_Space
340
3D1
 70
     0
280
     1
281
     0
  0
BLOCK_RECORD
  5
23
330
24
100
AcDbSymbolTableRecord
100
AcDbBlockTableRecord
  2
*Paper_Space
340
3D2
 70
     0
280
     1
281
     0
  0
BLOCK_RECORD
  5
1C
330
24
100
AcDbSymbolTableRecord
100
AcDbBlockTableRecord
  2
*D0
340
0
 70
     0
280
     1
281
     0
  0
BLOCK_RECORD
  5
1D
330
24
100
AcDbSymbolTableRecord
100
AcDbBlockTableRecord
  2
*D1
340
0
 70
     0
280
     1
281
     0
  0
BLOCK_RECORD
  5
1E
330
24
100
AcDbSymbolTableRecord
100
AcDbBlockTableRecord
  2
*D2
340
0
 70
     0
280
     1
281
     0
  0
BLOCK_RECORD
  5
1F
330
24
100
AcDbSymbolTableRecord
100
AcDbBlockTableRecord
  2
*D3
340
0
 70
     0
280
     1
281
     0
  0
BLOCK_RECORD
  5
20
330
24
100
AcDbSymbolTableRecord
100
AcDbBlockTableRecord
  2
*D4
340
0
 70
     0
280
     1
281
     0
  0
BLOCK_RECORD
  5
21
330
24
100
AcDbSymbolTableRecord
100
AcDbBlockTableRecord
  2
*D5
340
0
 70
     0
280
     1
281
     0
  0
BLOCK_RECORD
  5
474
330
24
100
AcDbSymbolTableRecord
100
AcDbBlockTableRecord
  2
GENAXEH
340
0
 70
     0
280
     1
281
     0
  0
ENDTAB
  0
ENDSEC
  0
SECTION
  2
BLOCKS
  0
BLOCK
  5
25
330
22
100
AcDbEntity
  8
0
100
AcDbBlockBegin
  2
*Model_Space
 70
     0
 10
0.0
 20
0.0
 30
0.0
  3
*Model_Space
  1

  0
ENDBLK
  5
26
330
22
100
AcDbEntity
  8
0
100
AcDbBlockEnd
  0
BLOCK
  5
27
330
23
100
AcDbEntity
 67
     1
  8
0
100
AcDbBlockBegin
  2
*Paper_Space
 70
     0
 10
0.0
 20
0.0
 30
0.0
  3
*Paper_Space
  1

  0
ENDBLK
  5
28
330
23
100
AcDbEntity
 67
     1
  8
0
100
AcDbBlockEnd
  0
BLOCK
  5
37F
330
1C
100
AcDbEntity
  8
2
100
AcDbBlockBegin
  2
*D0
 70
     1
 10
0.0
 20
0.0
 30
0.0
  3
*D0
  1

  0
TEXT
  5
380
330
1C
100
AcDbEntity
  8
2
440
 16777216
370
    25
100
AcDbText
 10
-57.59951
 20
-67.06059599999999
 30
0.0
 40
4.0
  1
35
 41
1.079999999999999
 72
     5
 11
-50.39951
 21
-67.06059599999999
 31
0.0
100
AcDbText
  0
LINE
  5
381
330
1C
100
AcDbEntity
  8
2
440
 16777216
370
    25
100
AcDbLine
 10
-71.09950999999999
 20
-58.40567199999999
 30
0.0
 11
-71.09950999999999
 21
-68.56059599999999
 31
0.0
  0
LINE
  5
382
330
1C
100
AcDbEntity
  8
2
440
 16777216
370
    25
100
AcDbLine
 10
-71.09950999999999
 20
-67.56059599999999
 30
0.0
 11
-69.16765799999999
 21
-68.07823499999999
 31
0.0
  0
LINE
  5
383
330
1C
100
AcDbEntity
  8
2
440
 16777216
370
    25
100
AcDbLine
 10
-71.09950999999999
 20
-67.56059599999999
 30
0.0
 11
-69.16765799999999
 21
-67.042958
 31
0.0
  0
LINE
  5
384
330
1C
100
AcDbEntity
  8
2
440
 16777216
370
    25
100
AcDbLine
 10
-69.16765799999999
 20
-68.07823499999999
 30
0.0
 11
-69.16765799999999
 21
-67.042958
 31
0.0
  0
LINE
  5
385
330
1C
100
AcDbEntity
  8
2
440
 16777216
370
    25
100
AcDbLine
 10
-71.09950999999999
 20
-67.56059599999999
 30
0.0
 11
-36.09951
 21
-67.56059599999999
 31
0.0
  0
LINE
  5
386
330
1C
100
AcDbEntity
  8
2
440
 16777216
370
    25
100
AcDbLine
 10
-36.09951
 20
-67.56059599999999
 30
0.0
 11
-38.031361
 21
-67.042958
 31
0.0
  0
LINE
  5
387
330
1C
100
AcDbEntity
  8
2
440
 16777216
370
    25
100
AcDbLine
 10
-36.09951
 20
-67.56059599999999
 30
0.0
 11
-38.031361
 21
-68.07823499999999
 31
0.0
  0
LINE
  5
388
330
1C
100
AcDbEntity
  8
2
440
 16777216
370
    25
100
AcDbLine
 10
-38.031361
 20
-67.042958
 30
0.0
 11
-38.031361
 21
-68.07823499999999
 31
0.0
  0
LINE
  5
389
330
1C
100
AcDbEntity
  8
2
440
 16777216
370
    25
100
AcDbLine
 10
-36.09951
 20
-47.445234
 30
0.0
 11
-36.09951
 21
-68.56059599999999
 31
0.0
  0
ENDBLK
  5
38A
330
1C
100
AcDbEntity
  8
2
100
AcDbBlockEnd
  0
BLOCK
  5
38B
330
1D
100
AcDbEntity
  8
2
100
AcDbBlockBegin
  2
*D1
 70
     1
 10
0.0
 20
0.0
 30
0.0
  3
*D1
  1

  0
TEXT
  5
38C
330
1D
100
AcDbEntity
  8
2
440
 16777216
370
    25
100
AcDbText
 10
-9.751482000000001
 20
-56.34523399999999
 30
0.0
 40
4.0
  1
2.2
 50
90.0
 41
1.299999999999999
 72
     5
 11
-9.751482000000001
 21
-45.94523399999999
 31
0.0
100
AcDbText
  0
LINE
  5
38D
330
1D
100
AcDbEntity
  8
2
440
 16777216
370
    25
100
AcDbLine
 10
-9.251482000000001
 20
-42.19523399999999
 30
0.0
 11
-8.733843999999999
 21
-40.263383
 31
0.0
  0
LINE
  5
38E
330
1D
100
AcDbEntity
  8
2
440
 16777216
370
    25
100
AcDbLine
 10
-9.251482000000001
 20
-42.19523399999999
 30
0.0
 11
-9.769119999999999
 21
-40.263383
 31
0.0
  0
LINE
  5
38F
330
1D
100
AcDbEntity
  8
2
440
 16777216
370
    25
100
AcDbLine
 10
-8.733843999999999
 20
-40.263383
 30
0.0
 11
-9.769119999999999
 21
-40.263383
 31
0.0
  0
LINE
  5
390
330
1D
100
AcDbEntity
  8
2
440
 16777216
370
    25
100
AcDbLine
 10
-9.251482000000001
 20
-37.195234
 30
0.0
 11
-9.251482000000001
 21
-56.34523399999999
 31
0.0
  0
LINE
  5
391
330
1D
100
AcDbEntity
  8
2
440
 16777216
370
    25
100
AcDbLine
 10
-9.251482000000001
 20
-44.345234
 30
0.0
 11
-9.769119999999999
 21
-46.277086
 31
0.0
  0
LINE
  5
392
330
1D
100
AcDbEntity
  8
2
440
 16777216
370
    25
100
AcDbLine
 10
-9.251482000000001
 20
-44.345234
 30
0.0
 11
-8.733843999999999
 21
-46.277086
 31
0.0
  0
LINE
  5
393
330
1D
100
AcDbEntity
  8
2
440
 16777216
370
    25
100
AcDbLine
 10
-9.769119999999999
 20
-46.277086
 30
0.0
 11
-8.733843999999999
 21
-46.277086
 31
0.0
  0
ENDBLK
  5
394
330
1D
100
AcDbEntity
  8
2
100
AcDbBlockEnd
  0
BLOCK
  5
395
330
1E
100
AcDbEntity
  8
2
100
AcDbBlockBegin
  2
*D2
 70
     1
 10
0.0
 20
0.0
 30
0.0
  3
*D2
  1

  0
TEXT
  5
396
330
1E
100
AcDbEntity
  8
2
440
 16777216
370
    25
100
AcDbText
 10
-57.93873000000001
 20
-46.122217
 30
0.0
 40
4.0
  1
2.5
 50
284.7759489494712
 41
1.300000060542721
 72
     5
 11
-55.286315
 21
-56.178295
 31
0.0
100
AcDbText
  0
LINE
  5
397
330
1E
100
AcDbEntity
  8
2
440
 16777216
370
    25
100
AcDbLine
 10
-59.10368199999999
 20
-44.405708
 30
0.0
 11
-59.095861
 21
-42.40572299999999
 31
0.0
  0
LINE
  5
398
330
1E
100
AcDbEntity
  8
2
440
 16777216
370
    25
100
AcDbLine
 10
-59.10368199999999
 20
-44.405708
 30
0.0
 11
-60.096901
 21
-42.66975999999999
 31
0.0
  0
LINE
  5
399
330
1E
100
AcDbEntity
  8
2
440
 16777216
370
    25
100
AcDbLine
 10
-59.095861
 20
-42.40572299999999
 30
0.0
 11
-60.096901
 21
-42.66975999999999
 31
0.0
  0
LINE
  5
39A
330
1E
100
AcDbEntity
  8
2
440
 16777216
370
    25
100
AcDbLine
 10
-60.378881
 20
-39.571055
 30
0.0
 11
-54.29309499999999
 21
-62.644043
 31
0.0
  0
LINE
  5
39B
330
1E
100
AcDbEntity
  8
2
440
 16777216
370
    25
100
AcDbLine
 10
-58.46608199999999
 20
-46.823034
 30
0.0
 11
-58.473903
 21
-48.823019
 31
0.0
  0
LINE
  5
39C
330
1E
100
AcDbEntity
  8
2
440
 16777216
370
    25
100
AcDbLine
 10
-58.46608199999999
 20
-46.823034
 30
0.0
 11
-57.472863
 21
-48.558982
 31
0.0
  0
LINE
  5
39D
330
1E
100
AcDbEntity
  8
2
440
 16777216
370
    25
100
AcDbLine
 10
-58.473903
 20
-48.823019
 30
0.0
 11
-57.472863
 21
-48.558982
 31
0.0
  0
ENDBLK
  5
39E
330
1E
100
AcDbEntity
  8
2
100
AcDbBlockEnd
  0
BLOCK
  5
39F
330
1F
100
AcDbEntity
  8
2
100
AcDbBlockBegin
  2
*D3
 70
     1
 10
0.0
 20
0.0
 30
0.0
  3
*D3
  1

  0
TEXT
  5
3A0
330
1F
100
AcDbEntity
  8
2
440
 16777216
370
    25
100
AcDbText
 10
23.476509
 20
2.128470999999999
 30
0.0
 40
3.5
  1
17
 41
1.2
 72
     5
 11
29.076509
 21
2.128470999999999
 31
0.0
100
AcDbText
  0
LINE
  5
3A1
330
1F
100
AcDbEntity
  8
2
440
 16777216
370
    25
100
AcDbLine
 10
18.476509
 20
-10.945234
 30
0.0
 11
18.476509
 21
2.628470999999999
 31
0.0
  0
LINE
  5
3A2
330
1F
100
AcDbEntity
  8
2
440
 16777216
370
    25
100
AcDbLine
 10
18.476509
 20
1.628471
 30
0.0
 11
20.408361
 21
1.110832999999999
 31
0.0
  0
LINE
  5
3A3
330
1F
100
AcDbEntity
  8
2
440
 16777216
370
    25
100
AcDbLine
 10
18.476509
 20
1.628471
 30
0.0
 11
20.408361
 21
2.146109
 31
0.0
  0
LINE
  5
3A4
330
1F
100
AcDbEntity
  8
2
440
 16777216
370
    25
100
AcDbLine
 10
20.408361
 20
1.110832999999999
 30
0.0
 11
20.408361
 21
2.146109
 31
0.0
  0
LINE
  5
3A5
330
1F
100
AcDbEntity
  8
2
440
 16777216
370
    25
100
AcDbLine
 10
18.476509
 20
1.628471
 30
0.0
 11
35.476509
 21
1.628471
 31
0.0
  0
LINE
  5
3A6
330
1F
100
AcDbEntity
  8
2
440
 16777216
370
    25
100
AcDbLine
 10
35.476509
 20
1.628471
 30
0.0
 11
33.544658
 21
2.146109
 31
0.0
  0
LINE
  5
3A7
330
1F
100
AcDbEntity
  8
2
440
 16777216
370
    25
100
AcDbLine
 10
35.476509
 20
1.628471
 30
0.0
 11
33.544658
 21
1.110832999999999
 31
0.0
  0
LINE
  5
3A8
330
1F
100
AcDbEntity
  8
2
440
 16777216
370
    25
100
AcDbLine
 10
33.544658
 20
2.146109
 30
0.0
 11
33.544658
 21
1.110832999999999
 31
0.0
  0
LINE
  5
3A9
330
1F
100
AcDbEntity
  8
2
440
 16777216
370
    25
100
AcDbLine
 10
35.476509
 20
-2.945234
 30
0.0
 11
35.476509
 21
2.628470999999999
 31
0.0
  0
ENDBLK
  5
3AA
330
1F
100
AcDbEntity
  8
2
100
AcDbBlockEnd
  0
BLOCK
  5
3AB
330
20
100
AcDbEntity
  8
2
100
AcDbBlockBegin
  2
*D4
 70
     1
 10
0.0
 20
0.0
 30
0.0
  3
*D4
  1

  0
TEXT
  5
3AC
330
20
100
AcDbEntity
  8
2
440
 16777216
370
    25
100
AcDbText
 10
70.146948
 20
-39.195234
 30
0.0
 40
3.5
  1
%%c60
 50
90.0
 41
1.039999999999999
 72
     5
 11
70.146948
 21
-30.095234
 31
0.0
100
AcDbText
  0
LINE
  5
3AD
330
20
100
AcDbEntity
  8
2
440
 16777216
370
    25
100
AcDbLine
 10
36.476509
 20
-3.945233999999999
 30
0.0
 11
71.64694799999999
 21
-3.945233999999999
 31
0.0
  0
LINE
  5
3AE
330
20
100
AcDbEntity
  8
2
440
 16777216
370
    25
100
AcDbLine
 10
70.64694799999999
 20
-3.945233999999999
 30
0.0
 11
70.12931
 21
-5.877086
 31
0.0
  0
LINE
  5
3AF
330
20
100
AcDbEntity
  8
2
440
 16777216
370
    25
100
AcDbLine
 10
70.64694799999999
 20
-3.945233999999999
 30
0.0
 11
71.164586
 21
-5.877086
 31
0.0
  0
LINE
  5
3B0
330
20
100
AcDbEntity
  8
2
440
 16777216
370
    25
100
AcDbLine
 10
70.12931
 20
-5.877086
 30
0.0
 11
71.164586
 21
-5.877086
 31
0.0
  0
LINE
  5
3B1
330
20
100
AcDbEntity
  8
2
440
 16777216
370
    25
100
AcDbLine
 10
70.64694799999999
 20
-3.945233999999999
 30
0.0
 11
70.64694799999999
 21
-63.945234
 31
0.0
  0
LINE
  5
3B2
330
20
100
AcDbEntity
  8
2
440
 16777216
370
    25
100
AcDbLine
 10
70.64694799999999
 20
-63.945234
 30
0.0
 11
71.164586
 21
-62.01338299999999
 31
0.0
  0
LINE
  5
3B3
330
20
100
AcDbEntity
  8
2
440
 16777216
370
    25
100
AcDbLine
 10
70.64694799999999
 20
-63.945234
 30
0.0
 11
70.12931
 21
-62.01338299999999
 31
0.0
  0
LINE
  5
3B4
330
20
100
AcDbEntity
  8
2
440
 16777216
370
    25
100
AcDbLine
 10
71.164586
 20
-62.01338299999999
 30
0.0
 11
70.12931
 21
-62.01338299999999
 31
0.0
  0
LINE
  5
3B5
330
20
100
AcDbEntity
  8
2
440
 16777216
370
    25
100
AcDbLine
 10
36.476509
 20
-63.945234
 30
0.0
 11
71.64694799999999
 21
-63.945234
 31
0.0
  0
ENDBLK
  5
3B6
330
20
100
AcDbEntity
  8
2
100
AcDbBlockEnd
  0
BLOCK
  5
3B7
330
21
100
AcDbEntity
  8
2
100
AcDbBlockBegin
  2
*D5
 70
     1
 10
0.0
 20
0.0
 30
0.0
  3
*D5
  1

  0
LINE
  5
3B8
330
21
100
AcDbEntity
  8
2
440
 16777216
370
    25
100
AcDbLine
 10
-46.88291599999999
 20
-23.982216
 30
0.0
 11
-46.88291599999999
 21
14.478788
 31
0.0
  0
LINE
  5
3B9
330
21
100
AcDbEntity
  8
2
440
 16777216
370
    25
100
AcDbLine
 10
-46.88291599999999
 20
13.478788
 30
0.0
 11
-44.951065
 21
12.96115
 31
0.0
  0
LINE
  5
3BA
330
21
100
AcDbEntity
  8
2
440
 16777216
370
    25
100
AcDbLine
 10
-46.88291599999999
 20
13.478788
 30
0.0
 11
-44.951065
 21
13.996426
 31
0.0
  0
LINE
  5
3BB
330
21
100
AcDbEntity
  8
2
440
 16777216
370
    25
100
AcDbLine
 10
-44.951065
 20
12.96115
 30
0.0
 11
-44.951065
 21
13.996426
 31
0.0
  0
LINE
  5
3BC
330
21
100
AcDbEntity
  8
2
440
 16777216
370
    25
100
AcDbLine
 10
-46.88291599999999
 20
13.478788
 30
0.0
 11
51.28089899999999
 21
13.478788
 31
0.0
  0
LINE
  5
3BD
330
21
100
AcDbEntity
  8
2
440
 16777216
370
    25
100
AcDbLine
 10
51.28089899999999
 20
13.478788
 30
0.0
 11
49.349047
 21
13.996426
 31
0.0
  0
LINE
  5
3BE
330
21
100
AcDbEntity
  8
2
440
 16777216
370
    25
100
AcDbLine
 10
51.28089899999999
 20
13.478788
 30
0.0
 11
49.349047
 21
12.96115
 31
0.0
  0
LINE
  5
3BF
330
21
100
AcDbEntity
  8
2
440
 16777216
370
    25
100
AcDbLine
 10
49.349047
 20
13.996426
 30
0.0
 11
49.349047
 21
12.96115
 31
0.0
  0
LINE
  5
3C0
330
21
100
AcDbEntity
  8
2
440
 16777216
370
    25
100
AcDbLine
 10
51.28089899999999
 20
-23.982216
 30
0.0
 11
51.28089899999999
 21
14.478788
 31
0.0
  0
ENDBLK
  5
3C1
330
21
100
AcDbEntity
  8
2
100
AcDbBlockEnd
  0
BLOCK
  5
476
330
474
100
AcDbEntity
  8
0
370
     0
100
AcDbBlockBegin
  2
GENAXEH
 70
     0
 10
0.0
 20
0.0
 30
0.0
  3
GENAXEH
  1

  0
LINE
  5
475
330
474
100
AcDbEntity
  8
0
100
AcDbLine
 10
-1.0
 20
0.0
 30
0.0
 11
1.0
 21
0.0
 31
0.0
  0
ENDBLK
  5
477
330
474
100
AcDbEntity
  8
0
370
     0
100
AcDbBlockEnd
  0
ENDSEC
  0
SECTION
  2
ENTITIES
  0
LINE
  5
62
330
22
100
AcDbEntity
  8
2
370
    50
100
AcDbLine
 10
-62.849692
 20
-20.94546
 30
0.0
 11
-62.849692
 21
-10.94546
 31
0.0
  0
LINE
  5
63
330
22
100
AcDbEntity
  8
2
370
    50
100
AcDbLine
 10
-79.34969200000001
 20
-20.94546
 30
0.0
 11
-79.34969200000001
 21
-10.94546
 31
0.0
  0
LINE
  5
64
330
22
100
AcDbEntity
  8
2
370
    50
100
AcDbLine
 10
-78.09969200000001
 20
-31.94546
 30
0.0
 11
-78.09969200000001
 21
-28.94546
 31
0.0
  0
LINE
  5
65
330
22
100
AcDbEntity
  8
2
370
    50
100
AcDbLine
 10
-79.099692
 20
-30.44546
 30
0.0
 11
-78.09969200000001
 21
-30.44546
 31
0.0
  0
LINE
  5
66
330
22
100
AcDbEntity
  8
2
370
    50
100
AcDbLine
 10
-79.099692
 20
-30.44546
 30
0.0
 11
-79.099692
 21
-26.44546
 31
0.0
  0
LINE
  5
67
330
22
100
AcDbEntity
  8
2
370
    50
100
AcDbLine
 10
-63.09969200000001
 20
-30.44546
 30
0.0
 11
-63.09969200000001
 21
-26.44546
 31
0.0
  0
LINE
  5
68
330
22
100
AcDbEntity
  8
2
370
    50
100
AcDbLine
 10
-79.099692
 20
-26.44546
 30
0.0
 11
-76.84969200000001
 21
-26.44546
 31
0.0
  0
LINE
  5
69
330
22
100
AcDbEntity
  8
2
370
    50
100
AcDbLine
 10
-65.349692
 20
-26.44546
 30
0.0
 11
-63.09969200000001
 21
-26.44546
 31
0.0
  0
LINE
  5
6A
330
22
100
AcDbEntity
  8
2
370
    50
100
AcDbLine
 10
-66.349692
 20
-25.44546
 30
0.0
 11
-66.349692
 21
-21.94546
 31
0.0
  0
LINE
  5
6B
330
22
100
AcDbEntity
  8
2
370
    50
100
AcDbLine
 10
-66.349692
 20
-10.94546
 30
0.0
 11
-66.349692
 21
10.55454
 31
0.0
  0
LINE
  5
6C
330
22
100
AcDbEntity
  8
2
370
    50
100
AcDbLine
 10
-75.849692
 20
-25.44546
 30
0.0
 11
-75.849692
 21
-21.94546
 31
0.0
  0
LINE
  5
6D
330
22
100
AcDbEntity
  8
2
370
    50
100
AcDbLine
 10
-75.849692
 20
-10.94546
 30
0.0
 11
-75.849692
 21
10.55454
 31
0.0
  0
LINE
  5
6E
330
22
100
AcDbEntity
  8
2
370
    50
100
AcDbLine
 10
-79.34969200000001
 20
-20.94546
 30
0.0
 11
-76.84969200000001
 21
-20.94546
 31
0.0
  0
LINE
  5
6F
330
22
100
AcDbEntity
  8
2
370
    50
100
AcDbLine
 10
-65.349692
 20
-20.94546
 30
0.0
 11
-62.849692
 21
-20.94546
 31
0.0
  0
LINE
  5
70
330
22
100
AcDbEntity
  8
2
370
    50
100
AcDbLine
 10
-79.34969200000001
 20
-10.94546
 30
0.0
 11
-75.849692
 21
-10.94546
 31
0.0
  0
LINE
  5
71
330
22
100
AcDbEntity
  8
2
370
    50
100
AcDbLine
 10
-66.349692
 20
-10.94546
 30
0.0
 11
-62.849692
 21
-10.94546
 31
0.0
  0
ARC
  5
72
330
22
100
AcDbEntity
  8
2
370
    50
100
AcDbCircle
 10
-74.849692
 20
10.55454
 30
0.0
 40
1.0
100
AcDbArc
 50
90.0
 51
180.0
  0
ARC
  5
73
330
22
100
AcDbEntity
  8
2
370
    50
100
AcDbCircle
 10
-67.349692
 20
10.55454
 30
0.0
 40
1.0
100
AcDbArc
 50
0.0
 51
90.0
  0
LINE
  5
74
330
22
100
AcDbEntity
  8
2
370
    50
100
AcDbLine
 10
-72.099692
 20
8.554539999999999
 30
0.0
 11
-72.099692
 21
11.55454
 31
0.0
  0
LINE
  5
75
330
22
100
AcDbEntity
  8
2
370
    50
100
AcDbLine
 10
-70.099692
 20
8.554539999999999
 30
0.0
 11
-70.099692
 21
11.55454
 31
0.0
  0
LINE
  5
76
330
22
100
AcDbEntity
  8
2
370
    50
100
AcDbLine
 10
-72.099692
 20
8.554539999999999
 30
0.0
 11
-70.099692
 21
8.554539999999999
 31
0.0
  0
LINE
  5
77
330
22
100
AcDbEntity
  8
2
370
    50
100
AcDbLine
 10
-74.849692
 20
11.55454
 30
0.0
 11
-72.099692
 21
11.55454
 31
0.0
  0
LINE
  5
78
330
22
100
AcDbEntity
  8
2
370
    50
100
AcDbLine
 10
-70.099692
 20
11.55454
 30
0.0
 11
-67.349692
 21
11.55454
 31
0.0
  0
LINE
  5
79
330
22
100
AcDbEntity
  8
2
370
    50
100
AcDbLine
 10
-79.34969200000001
 20
-10.94546
 30
0.0
 11
-80.84969200000001
 21
-12.44546
 31
0.0
  0
LINE
  5
7A
330
22
100
AcDbEntity
  8
2
370
    50
100
AcDbLine
 10
-62.849692
 20
-10.94546
 30
0.0
 11
-61.349692
 21
-12.44546
 31
0.0
  0
LINE
  5
7B
330
22
100
AcDbEntity
  8
2
370
    50
100
AcDbLine
 10
-62.849692
 20
-20.94546
 30
0.0
 11
-61.349692
 21
-19.44546
 31
0.0
  0
LINE
  5
7C
330
22
100
AcDbEntity
  8
2
370
    50
100
AcDbLine
 10
-79.34969200000001
 20
-20.94546
 30
0.0
 11
-80.84969200000001
 21
-19.44546
 31
0.0
  0
ARC
  5
7D
330
22
100
AcDbEntity
  8
2
370
    50
100
AcDbCircle
 10
-76.84969200000001
 20
-21.94546
 30
0.0
 40
1.0
100
AcDbArc
 50
0.0
 51
90.0
  0
ARC
  5
7E
330
22
100
AcDbEntity
  8
2
370
    50
100
AcDbCircle
 10
-65.349692
 20
-21.94546
 30
0.0
 40
1.0
100
AcDbArc
 50
90.0
 51
180.0
  0
ARC
  5
7F
330
22
100
AcDbEntity
  8
2
370
    50
100
AcDbCircle
 10
-65.349692
 20
-25.44546
 30
0.0
 40
1.0
100
AcDbArc
 50
180.0
 51
270.0
  0
ARC
  5
80
330
22
100
AcDbEntity
  8
2
370
    50
100
AcDbCircle
 10
-76.84969200000001
 20
-25.44546
 30
0.0
 40
1.0
100
AcDbArc
 50
270.0
 51
0.0
  0
LINE
  5
81
330
22
100
AcDbEntity
  8
2
370
    50
100
AcDbLine
 10
-73.09969200000001
 20
-18.44546
 30
0.0
 11
-69.099692
 21
-18.44546
 31
0.0
  0
LINE
  5
82
330
22
100
AcDbEntity
  8
2
370
    25
100
AcDbLine
 10
-72.699692
 20
-16.44546
 30
0.0
 11
-69.49969200000001
 21
-16.44546
 31
0.0
  0
LINE
  5
83
330
22
100
AcDbEntity
  8
2
370
    50
100
AcDbLine
 10
-78.09969200000001
 20
-28.94546
 30
0.0
 11
-73.09969200000001
 21
-28.94546
 31
0.0
  0
LINE
  5
84
330
22
100
AcDbEntity
  8
2
370
    50
100
AcDbLine
 10
-69.099692
 20
-28.94546
 30
0.0
 11
-64.099692
 21
-28.94546
 31
0.0
  0
LINE
  5
85
330
22
100
AcDbEntity
  8
2
370
    50
100
AcDbLine
 10
-78.09969200000001
 20
-31.94546
 30
0.0
 11
-73.09969200000001
 21
-31.94546
 31
0.0
  0
LINE
  5
86
330
22
100
AcDbEntity
  8
2
370
    50
100
AcDbLine
 10
-69.099692
 20
-31.94546
 30
0.0
 11
-64.099692
 21
-31.94546
 31
0.0
  0
LINE
  5
87
330
22
100
AcDbEntity
  8
2
370
    50
100
AcDbLine
 10
-72.699692
 20
-21.94546
 30
0.0
 11
-69.49969200000001
 21
-21.94546
 31
0.0
  0
LINE
  5
88
330
22
100
AcDbEntity
  8
2
370
    50
100
AcDbLine
 10
-73.09969200000001
 20
-28.94546
 30
0.0
 11
-72.699692
 21
-28.54546
 31
0.0
  0
LINE
  5
89
330
22
100
AcDbEntity
  8
2
370
    50
100
AcDbLine
 10
-73.09969200000001
 20
-31.94546
 30
0.0
 11
-72.699692
 21
-31.54546
 31
0.0
  0
LINE
  5
8A
330
22
100
AcDbEntity
  8
2
370
    50
100
AcDbLine
 10
-73.09969200000001
 20
-18.44546
 30
0.0
 11
-72.699692
 21
-18.04546
 31
0.0
  0
LINE
  5
8B
330
22
100
AcDbEntity
  8
2
370
    50
100
AcDbLine
 10
-69.099692
 20
-18.44546
 30
0.0
 11
-69.49969200000001
 21
-18.04546
 31
0.0
  0
LINE
  5
8C
330
22
100
AcDbEntity
  8
2
370
    50
100
AcDbLine
 10
-69.49969200000001
 20
-21.94546
 30
0.0
 11
-69.099692
 21
-22.34546
 31
0.0
  0
LINE
  5
8D
330
22
100
AcDbEntity
  8
2
370
    50
100
AcDbLine
 10
-69.099692
 20
-28.94546
 30
0.0
 11
-69.49969200000001
 21
-28.54546
 31
0.0
  0
LINE
  5
8E
330
22
100
AcDbEntity
  8
2
370
    50
100
AcDbLine
 10
-69.099692
 20
-31.94546
 30
0.0
 11
-69.49969200000001
 21
-31.54546
 31
0.0
  0
LINE
  5
8F
330
22
100
AcDbEntity
  8
2
370
    50
100
AcDbLine
 10
-72.699692
 20
-16.44546
 30
0.0
 11
-71.099692
 21
-15.5217
 31
0.0
  0
LINE
  5
90
330
22
100
AcDbEntity
  8
2
370
    50
100
AcDbLine
 10
-69.49969200000001
 20
-16.44546
 30
0.0
 11
-71.099692
 21
-15.5217
 31
0.0
  0
LINE
  5
91
330
22
100
AcDbEntity
  8
2
370
    50
100
AcDbLine
 10
-69.099692
 20
-31.94546
 30
0.0
 11
-69.099692
 21
-22.34546
 31
0.0
  0
LINE
  5
92
330
22
100
AcDbEntity
  8
2
370
    50
100
AcDbLine
 10
-69.099692
 20
-22.34546
 30
0.0
 11
-69.099692
 21
-18.44546
 31
0.0
  0
LINE
  5
93
330
22
100
AcDbEntity
  8
2
370
    50
100
AcDbLine
 10
-73.09969200000001
 20
-31.94546
 30
0.0
 11
-73.09969200000001
 21
-22.34546
 31
0.0
  0
LINE
  5
94
330
22
100
AcDbEntity
  8
2
370
    50
100
AcDbLine
 10
-73.09969200000001
 20
-22.34546
 30
0.0
 11
-73.09969200000001
 21
-18.44546
 31
0.0
  0
LINE
  5
95
330
22
100
AcDbEntity
  8
2
370
    50
100
AcDbLine
 10
-72.699692
 20
-31.54546
 30
0.0
 11
-72.699692
 21
-28.54546
 31
0.0
  0
LINE
  5
96
330
22
100
AcDbEntity
  8
2
370
    50
100
AcDbLine
 10
-72.699692
 20
-28.54546
 30
0.0
 11
-72.699692
 21
-16.44546
 31
0.0
  0
LINE
  5
97
330
22
100
AcDbEntity
  8
2
370
    50
100
AcDbLine
 10
-69.49969200000001
 20
-31.54546
 30
0.0
 11
-69.49969200000001
 21
-28.54546
 31
0.0
  0
LINE
  5
98
330
22
100
AcDbEntity
  8
2
370
    50
100
AcDbLine
 10
-69.49969200000001
 20
-28.54546
 30
0.0
 11
-69.49969200000001
 21
-16.44546
 31
0.0
  0
LINE
  5
99
330
22
100
AcDbEntity
  8
2
370
    50
100
AcDbLine
 10
-67.599692
 20
-31.94546
 30
0.0
 11
-67.67927399999999
 21
-32.855085
 31
0.0
  0
LINE
  5
9A
330
22
100
AcDbEntity
  8
2
370
    50
100
AcDbLine
 10
-74.599692
 20
-31.94546
 30
0.0
 11
-74.52011099999999
 21
-32.855085
 31
0.0
  0
ARC
  5
9B
330
22
100
AcDbEntity
  8
2
370
    50
100
AcDbCircle
 10
-71.099692
 20
-24.44546
 30
0.0
 40
10.0
100
AcDbArc
 50
256.902838
 51
283.097162
  0
ARC
  5
9C
330
22
100
AcDbEntity
  8
2
370
    50
100
AcDbCircle
 10
-69.17356600000001
 20
-32.724351
 30
0.0
 40
1.5
100
AcDbArc
 50
283.097162
 51
355.0
  0
ARC
  5
9D
330
22
100
AcDbEntity
  8
2
370
    50
100
AcDbCircle
 10
-73.02581899999999
 20
-32.724351
 30
0.0
 40
1.5
100
AcDbArc
 50
185.0
 51
256.902838
  0
LINE
  5
9E
330
22
100
AcDbEntity
  8
2
370
    25
100
AcDbLine
 10
-71.599692
 20
-34.432952
 30
0.0
 11
-71.599692
 21
-32.528531
 31
0.0
  0
LINE
  5
9F
330
22
100
AcDbEntity
  8
2
370
    25
100
AcDbLine
 10
-70.59969200000001
 20
-34.432952
 30
0.0
 11
-70.59969200000001
 21
-32.528531
 31
0.0
  0
LINE
  5
A0
330
22
100
AcDbEntity
  8
2
370
    50
100
AcDbLine
 10
-73.09969200000001
 20
-34.243419
 30
0.0
 11
-72.10960199999999
 21
-32.528531
 31
0.0
  0
LINE
  5
A1
330
22
100
AcDbEntity
  8
2
370
    50
100
AcDbLine
 10
-69.099692
 20
-34.243419
 30
0.0
 11
-70.08978299999999
 21
-32.528531
 31
0.0
  0
LINE
  5
A2
330
22
100
AcDbEntity
  8
2
370
    50
100
AcDbLine
 10
-71.099692
 20
-31.94546
 30
0.0
 11
-72.10960199999999
 21
-32.528531
 31
0.0
  0
LINE
  5
A3
330
22
100
AcDbEntity
  8
2
370
    50
100
AcDbLine
 10
-71.099692
 20
-31.94546
 30
0.0
 11
-70.08978299999999
 21
-32.528531
 31
0.0
  0
LINE
  5
A4
330
22
100
AcDbEntity
  8
2
370
    25
100
AcDbLine
 10
-72.10960199999999
 20
-32.528531
 30
0.0
 11
-70.08978299999999
 21
-32.528531
 31
0.0
  0
LINE
  5
A5
330
22
100
AcDbEntity
  8
2
370
    50
100
AcDbLine
 10
-61.349692
 20
-19.44546
 30
0.0
 11
-61.349692
 21
-12.44546
 31
0.0
  0
LINE
  5
A6
330
22
100
AcDbEntity
  8
2
370
    50
100
AcDbLine
 10
-80.84969200000001
 20
-19.44546
 30
0.0
 11
-80.84969200000001
 21
-12.44546
 31
0.0
  0
LINE
  5
A7
330
22
100
AcDbEntity
  8
2
370
    25
100
AcDbLine
 10
-74.599692
 20
-31.94546
 30
0.0
 11
-73.09969200000001
 21
-30.44546
 31
0.0
  0
LINE
  5
A8
330
22
100
AcDbEntity
  8
2
370
    25
100
AcDbLine
 10
-76.57959100000001
 20
-31.94546
 30
0.0
 11
-73.57959100000001
 21
-28.94546
 31
0.0
  0
LINE
  5
A9
330
22
100
AcDbEntity
  8
2
370
    25
100
AcDbLine
 10
-78.09969200000001
 20
-31.485662
 30
0.0
 11
-75.55949
 21
-28.94546
 31
0.0
  0
LINE
  5
AA
330
22
100
AcDbEntity
  8
2
370
    25
100
AcDbLine
 10
-78.09969200000001
 20
-29.505763
 30
0.0
 11
-77.539389
 21
-28.94546
 31
0.0
  0
LINE
  5
AB
330
22
100
AcDbEntity
  8
2
370
    25
100
AcDbLine
 10
-69.099692
 20
-31.44546
 30
0.0
 11
-66.599692
 21
-28.94546
 31
0.0
  0
LINE
  5
AC
330
22
100
AcDbEntity
  8
2
370
    25
100
AcDbLine
 10
-67.619794
 20
-31.94546
 30
0.0
 11
-64.619794
 21
-28.94546
 31
0.0
  0
LINE
  5
AD
330
22
100
AcDbEntity
  8
2
370
    25
100
AcDbLine
 10
-65.63989499999999
 20
-31.94546
 30
0.0
 11
-64.099692
 21
-30.405258
 31
0.0
  0
LINE
  5
AE
330
22
100
AcDbEntity
  8
2
370
    25
100
AcDbLine
 10
-69.099692
 20
-29.465561
 30
0.0
 11
-68.57959100000001
 21
-28.94546
 31
0.0
  0
LINE
  5
AF
330
22
100
AcDbEntity
  8
2
370
    50
100
AcDbLine
 10
-83.09950999999999
 20
-17.467734
 30
0.0
 11
-83.09950999999999
 21
-4.245594
 31
0.0
  0
LINE
  5
B0
330
22
100
AcDbEntity
  8
2
370
    50
100
AcDbLine
 10
-59.09950999999999
 20
-15.945234
 30
0.0
 11
-59.09950999999999
 21
-4.245594
 31
0.0
  0
LINE
  5
B1
330
22
100
AcDbEntity
  8
2
370
    50
100
AcDbLine
 10
-37.235941
 20
-19.476878
 30
0.0
 11
-47.09950999999999
 21
-19.476878
 31
0.0
  0
LINE
  5
B2
330
22
100
AcDbEntity
  8
2
370
    50
100
AcDbLine
 10
-37.235941
 20
-48.413591
 30
0.0
 11
-47.09950999999999
 21
-48.413591
 31
0.0
  0
ARC
  5
B3
330
22
100
AcDbEntity
  8
2
370
    50
100
AcDbCircle
 10
-71.09950999999999
 20
1.554766
 30
0.0
 40
50.0
100
AcDbArc
 50
248.638688
 51
286.521957
  0
ARC
  5
B4
330
22
100
AcDbEntity
  8
2
370
    50
100
AcDbCircle
 10
-89.09950999999999
 20
-17.467734
 30
0.0
 40
6.0
100
AcDbArc
 50
270.0
 51
360.0
  0
ARC
  5
B5
330
22
100
AcDbEntity
  8
2
370
    50
100
AcDbCircle
 10
-53.09950999999999
 20
-15.945234
 30
0.0
 40
6.0
100
AcDbArc
 50
180.0
 51
270.0
  0
ARC
  5
B6
330
22
100
AcDbEntity
  8
2
370
    50
100
AcDbCircle
 10
-53.09950999999999
 20
-13.418754
 30
0.0
 40
8.526480000000001
100
AcDbArc
 50
270.0
 51
314.723818
  0
ARC
  5
B7
330
22
100
AcDbEntity
  8
2
370
    50
100
AcDbCircle
 10
-53.88054399999999
 20
-56.493793
 30
0.0
 40
10.548559
100
AcDbArc
 50
49.996094
 51
106.521957
  0
LINE
  5
B8
330
22
100
AcDbEntity
  8
2
370
    50
100
AcDbLine
 10
-75.59950999999999
 20
-35.445234
 30
0.0
 11
-75.59950999999999
 21
-32.445234
 31
0.0
  0
LINE
  5
B9
330
22
100
AcDbEntity
  8
2
370
    50
100
AcDbLine
 10
-66.59950999999999
 20
-35.445234
 30
0.0
 11
-66.59950999999999
 21
-32.445234
 31
0.0
  0
ARC
  5
BA
330
22
100
AcDbEntity
  8
2
370
    50
100
AcDbCircle
 10
-66.09950999999999
 20
-32.445234
 30
0.0
 40
0.5
100
AcDbArc
 50
0.0
 51
180.0
  0
ARC
  5
BB
330
22
100
AcDbEntity
  8
2
370
    50
100
AcDbCircle
 10
-76.09950999999999
 20
-32.445234
 30
0.0
 40
0.5
100
AcDbArc
 50
0.0
 51
180.0
  0
LINE
  5
BC
330
22
100
AcDbEntity
  8
2
370
    50
100
AcDbLine
 10
-82.32600699999998
 20
-32.445234
 30
0.0
 11
-76.59950999999999
 21
-32.445234
 31
0.0
  0
LINE
  5
BD
330
22
100
AcDbEntity
  8
2
370
    50
100
AcDbLine
 10
-65.59950999999999
 20
-32.445234
 30
0.0
 11
-62.84950999999999
 21
-32.445234
 31
0.0
  0
LINE
  5
BE
330
22
100
AcDbEntity
  8
2
370
    50
100
AcDbLine
 10
-62.84950999999999
 20
-32.445234
 30
0.0
 11
-62.84950999999999
 21
-30.945234
 31
0.0
  0
ARC
  5
BF
330
22
100
AcDbEntity
  8
2
370
    50
100
AcDbCircle
 10
-71.09950999999999
 20
1.554766
 30
0.0
 40
47.5
100
AcDbArc
 50
255.654548
 51
290.417781
  0
LINE
  5
C0
330
22
100
AcDbEntity
  8
2
370
    50
100
AcDbLine
 10
-61.29951
 20
-5.245233999999999
 30
0.0
 11
-61.29951
 21
-3.945233999999999
 31
0.0
  0
LINE
  5
C1
330
22
100
AcDbEntity
  8
2
370
    50
100
AcDbLine
 10
-80.89950999999999
 20
-5.245233999999999
 30
0.0
 11
-80.89950999999999
 21
-3.945233999999999
 31
0.0
  0
LINE
  5
C2
330
22
100
AcDbEntity
  8
2
370
    25
100
AcDbLine
 10
-61.34951
 20
-20.945234
 30
0.0
 11
-61.34951
 21
-5.295233999999999
 31
0.0
  0
LINE
  5
C3
330
22
100
AcDbEntity
  8
2
370
    25
100
AcDbLine
 10
-80.84951
 20
-20.945234
 30
0.0
 11
-80.84951
 21
-5.295233999999999
 31
0.0
  0
LINE
  5
C4
330
22
100
AcDbEntity
  8
2
370
    50
100
AcDbLine
 10
-62.84950999999999
 20
-20.945234
 30
0.0
 11
-62.84950999999999
 21
-6.795233999999999
 31
0.0
  0
LINE
  5
C5
330
22
100
AcDbEntity
  8
2
370
    50
100
AcDbLine
 10
-79.34950999999999
 20
-20.945234
 30
0.0
 11
-79.34950999999999
 21
-6.795233999999999
 31
0.0
  0
LINE
  5
C6
330
22
100
AcDbEntity
  8
2
370
    50
100
AcDbLine
 10
-62.84950999999999
 20
-6.795233999999999
 30
0.0
 11
-61.29951
 21
-5.245233999999999
 31
0.0
  0
LINE
  5
C7
330
22
100
AcDbEntity
  8
2
370
    50
100
AcDbLine
 10
-79.34950999999999
 20
-6.795233999999999
 30
0.0
 11
-80.89950999999999
 21
-5.245233999999999
 31
0.0
  0
LINE
  5
C8
330
22
100
AcDbEntity
  8
2
370
    25
100
AcDbLine
 10
-36.136304
 20
-23.467809
 30
0.0
 11
-46.88291599999999
 21
-23.803641
 31
0.0
  0
LINE
  5
C9
330
22
100
AcDbEntity
  8
2
370
    25
100
AcDbLine
 10
-36.136304
 20
-44.42266
 30
0.0
 11
-46.88291599999999
 21
-44.086828
 31
0.0
  0
LINE
  5
CA
330
22
100
AcDbEntity
  8
2
370
    50
100
AcDbLine
 10
-36.09951
 20
-44.423809
 30
0.0
 11
-37.31610300000001
 21
-43.20721599999999
 31
0.0
  0
LINE
  5
CB
330
22
100
AcDbEntity
  8
2
370
    25
100
AcDbLine
 10
-88.09950999999999
 20
-40.445234
 30
0.0
 11
-88.09950999999999
 21
-27.445234
 31
0.0
  0
LINE
  5
CC
330
22
100
AcDbEntity
  8
2
370
    50
100
AcDbLine
 10
-86.36745899999999
 20
-39.445234
 30
0.0
 11
-82.32600699999998
 21
-32.445234
 31
0.0
  0
LINE
  5
CD
330
22
100
AcDbEntity
  8
2
370
    50
100
AcDbLine
 10
-84.104989
 20
-41.526521
 30
0.0
 11
-81.171307
 21
-36.445234
 31
0.0
  0
ARC
  5
CE
330
22
100
AcDbEntity
  8
2
370
    50
100
AcDbCircle
 10
-88.09950999999999
 20
-38.445234
 30
0.0
 40
2.0
100
AcDbArc
 50
270.0
 51
330.0
  0
ARC
  5
CF
330
22
100
AcDbEntity
  8
2
370
    50
100
AcDbCircle
 10
-88.09950999999999
 20
-25.445234
 30
0.0
 40
2.0
100
AcDbArc
 50
270.0
 51
346.162676
  0
ARC
  5
D0
330
22
100
AcDbEntity
  8
2
370
    50
100
AcDbCircle
 10
-89.09950999999999
 20
-17.467734
 30
0.0
 40
8.952999999999999
100
AcDbArc
 50
289.183834
 51
337.143946
  0
LINE
  5
D1
330
22
100
AcDbEntity
  8
2
370
    50
100
AcDbLine
 10
-53.09950999999999
 20
-25.592234
 30
0.0
 11
-49.09950999999999
 21
-25.592234
 31
0.0
  0
ARC
  5
D2
330
22
100
AcDbEntity
  8
2
370
    50
100
AcDbCircle
 10
-53.09950999999999
 20
-15.945234
 30
0.0
 40
9.647
100
AcDbArc
 50
211.218009
 51
225.359858
  0
ARC
  5
D3
330
22
100
AcDbEntity
  8
2
370
    50
100
AcDbCircle
 10
-53.09950999999999
 20
-15.945234
 30
0.0
 40
9.647
100
AcDbArc
 50
260.381283
 51
270.0
  0
ARC
  5
D4
330
22
100
AcDbEntity
  8
2
370
    50
100
AcDbCircle
 10
-82.37293800000001
 20
-42.526521
 30
0.0
 40
2.0
100
AcDbArc
 50
150.0
 51
255.654548
  0
ARC
  5
D5
330
22
100
AcDbEntity
  8
2
370
    50
100
AcDbCircle
 10
-79.439256
 20
-37.445234
 30
0.0
 40
2.0
100
AcDbArc
 50
90.0
 51
150.0
  0
LINE
  5
D6
330
22
100
AcDbEntity
  8
2
370
    25
100
AcDbLine
 10
-48.09950999999999
 20
-42.870234
 30
0.0
 11
-48.09950999999999
 21
-25.020234
 31
0.0
  0
LINE
  5
D7
330
22
100
AcDbEntity
  8
2
370
    50
100
AcDbLine
 10
-48.09950999999999
 20
-25.020234
 30
0.0
 11
-49.09950999999999
 21
-25.020234
 31
0.0
  0
LINE
  5
D8
330
22
100
AcDbEntity
  8
2
370
    50
100
AcDbLine
 10
-48.09950999999999
 20
-42.870234
 30
0.0
 11
-49.09950999999999
 21
-42.870234
 31
0.0
  0
LINE
  5
D9
330
22
100
AcDbEntity
  8
2
370
    50
100
AcDbLine
 10
-48.09950999999999
 20
-25.020234
 30
0.0
 11
-46.88291599999999
 21
-23.803641
 31
0.0
  0
LINE
  5
DA
330
22
100
AcDbEntity
  8
2
370
    50
100
AcDbLine
 10
-48.09950999999999
 20
-42.870234
 30
0.0
 11
-46.88291599999999
 21
-44.086828
 31
0.0
  0
LINE
  5
DB
330
22
100
AcDbEntity
  8
2
370
    50
100
AcDbLine
 10
-50.848367
 20
-42.29823399999999
 30
0.0
 11
-49.09950999999999
 21
-42.29823399999999
 31
0.0
  0
ARC
  5
DC
330
22
100
AcDbEntity
  8
2
370
    50
100
AcDbCircle
 10
-50.848367
 20
-52.847234
 30
0.0
 40
10.549
100
AcDbArc
 50
90.0
 51
110.417781
  0
LINE
  5
DD
330
22
100
AcDbEntity
  8
2
370
    25
100
AcDbLine
 10
-82.49951000000001
 20
-9.945233999999999
 30
0.0
 11
-82.49951000000001
 21
-3.176174
 31
0.0
  0
LINE
  5
DE
330
22
100
AcDbEntity
  8
2
370
    25
100
AcDbLine
 10
-59.69951
 20
-9.945233999999999
 30
0.0
 11
-59.69951
 21
-3.176174
 31
0.0
  0
LINE
  5
DF
330
22
100
AcDbEntity
  8
2
370
    50
100
AcDbLine
 10
-59.69951
 20
-3.945233999999999
 30
0.0
 11
-59.09950999999999
 21
-4.545233999999999
 31
0.0
  0
LINE
  5
E0
330
22
100
AcDbEntity
  8
2
370
    50
100
AcDbLine
 10
-59.69951
 20
-9.945233999999999
 30
0.0
 11
-59.09950999999999
 21
-10.545234
 31
0.0
  0
LINE
  5
E1
330
22
100
AcDbEntity
  8
2
370
    50
100
AcDbLine
 10
-82.49951000000001
 20
-3.945233999999999
 30
0.0
 11
-83.09950999999999
 21
-4.545233999999999
 31
0.0
  0
LINE
  5
E2
330
22
100
AcDbEntity
  8
2
370
    50
100
AcDbLine
 10
-82.49951000000001
 20
-9.945233999999999
 30
0.0
 11
-83.09950999999999
 21
-10.545234
 31
0.0
  0
LINE
  5
E3
330
22
100
AcDbEntity
  8
2
370
    50
100
AcDbLine
 10
-91.09951
 20
-43.222734
 30
0.0
 11
-89.31191099999999
 21
-45.010333
 31
0.0
  0
LINE
  5
E4
330
22
100
AcDbEntity
  8
2
370
    50
100
AcDbLine
 10
-36.09951
 20
69.428617
 30
0.0
 11
-36.09951
 21
95.42861700000001
 31
0.0
  0
LINE
  5
E5
330
22
100
AcDbEntity
  8
2
370
    50
100
AcDbLine
 10
-45.96351
 20
95.42861700000001
 30
0.0
 11
-36.09951
 21
95.42861700000001
 31
0.0
  0
LINE
  5
E6
330
22
100
AcDbEntity
  8
2
370
    50
100
AcDbLine
 10
-45.96351
 20
69.428617
 30
0.0
 11
-36.09951
 21
69.428617
 31
0.0
  0
LINE
  5
E7
330
22
100
AcDbEntity
  8
2
370
    50
100
AcDbLine
 10
-45.96351
 20
83.428617
 30
0.0
 11
-37.23551
 21
83.428617
 31
0.0
  0
LINE
  5
E8
330
22
100
AcDbEntity
  8
2
370
    50
100
AcDbLine
 10
-45.96351
 20
81.428617
 30
0.0
 11
-37.23551
 21
81.428617
 31
0.0
  0
LINE
  5
E9
330
22
100
AcDbEntity
  8
2
370
    50
100
AcDbLine
 10
-45.96351
 20
94.42861699999999
 30
0.0
 11
-37.23551
 21
94.42861699999999
 31
0.0
  0
LINE
  5
EA
330
22
100
AcDbEntity
  8
2
370
    50
100
AcDbLine
 10
-45.96351
 20
70.428617
 30
0.0
 11
-37.23551
 21
70.428617
 31
0.0
  0
LINE
  5
EB
330
22
100
AcDbEntity
  8
2
370
    50
100
AcDbLine
 10
-36.09951
 20
-21.445234
 30
0.0
 11
-37.235941
 21
-19.476878
 31
0.0
  0
LINE
  5
EC
330
22
100
AcDbEntity
  8
2
370
    50
100
AcDbLine
 10
-36.09951
 20
-46.44523399999999
 30
0.0
 11
-37.235941
 21
-48.413591
 31
0.0
  0
ARC
  5
ED
330
22
100
AcDbEntity
  8
2
370
    50
100
AcDbCircle
 10
-49.98177
 20
88.928617
 30
0.0
 40
13.882261
100
AcDbArc
 50
336.659846
 51
23.340154
  0
ARC
  5
EE
330
22
100
AcDbEntity
  8
2
370
    50
100
AcDbCircle
 10
-49.98177
 20
75.928617
 30
0.0
 40
13.882261
100
AcDbArc
 50
336.659846
 51
23.340154
  0
ARC
  5
EF
330
22
100
AcDbEntity
  8
2
370
    50
100
AcDbCircle
 10
-33.217249
 20
88.928617
 30
0.0
 40
13.882261
100
AcDbArc
 50
156.659846
 51
203.340154
  0
ARC
  5
F0
330
22
100
AcDbEntity
  8
2
370
    50
100
AcDbCircle
 10
-33.217249
 20
75.928617
 30
0.0
 40
13.882261
100
AcDbArc
 50
156.659846
 51
203.340154
  0
LINE
  5
F1
330
22
100
AcDbEntity
  8
2
370
    50
100
AcDbLine
 10
-37.23551
 20
94.42861699999999
 30
0.0
 11
-37.23551
 21
95.42861700000001
 31
0.0
  0
LINE
  5
F2
330
22
100
AcDbEntity
  8
2
370
    50
100
AcDbLine
 10
-37.23551
 20
69.428617
 30
0.0
 11
-37.23551
 21
70.428617
 31
0.0
  0
LINE
  5
F3
330
22
100
AcDbEntity
  8
2
370
    50
100
AcDbLine
 10
-37.23551
 20
81.428617
 30
0.0
 11
-37.23551
 21
83.428617
 31
0.0
  0
LINE
  5
F4
330
22
100
AcDbEntity
  8
2
370
    50
100
AcDbLine
 10
-45.96351
 20
69.428617
 30
0.0
 11
-45.96351
 21
70.428617
 31
0.0
  0
LINE
  5
F5
330
22
100
AcDbEntity
  8
2
370
    50
100
AcDbLine
 10
-45.96351
 20
81.428617
 30
0.0
 11
-45.96351
 21
83.428617
 31
0.0
  0
LINE
  5
F6
330
22
100
AcDbEntity
  8
2
370
    50
100
AcDbLine
 10
-45.96351
 20
94.42861699999999
 30
0.0
 11
-45.96351
 21
95.42861700000001
 31
0.0
  0
ARC
  5
F7
330
22
100
AcDbEntity
  8
2
370
    50
100
AcDbCircle
 10
-49.569061
 20
101.428617
 30
0.0
 40
7.0
100
AcDbArc
 50
270.0
 51
301.0027190000001
  0
ARC
  5
F8
330
22
100
AcDbEntity
  8
2
370
    50
100
AcDbCircle
 10
-49.569061
 20
63.428617
 30
0.0
 40
7.0
100
AcDbArc
 50
58.997281
 51
90.0
  0
LINE
  5
F9
330
22
100
AcDbEntity
  8
2
370
    50
100
AcDbLine
 10
-61.29951
 20
-4.145233999999999
 30
0.0
 11
-61.09950999999999
 21
-3.945233999999999
 31
0.0
  0
LINE
  5
FA
330
22
100
AcDbEntity
  8
2
370
    50
100
AcDbLine
 10
-80.89950999999999
 20
-4.145233999999999
 30
0.0
 11
-81.09951
 21
-3.945233999999999
 31
0.0
  0
LINE
  5
FB
330
22
100
AcDbEntity
  8
2
370
    50
100
AcDbLine
 10
-49.09950999999999
 20
-25.592234
 30
0.0
 11
-49.09950999999999
 21
-25.020234
 31
0.0
  0
LINE
  5
FC
330
22
100
AcDbEntity
  8
2
370
    50
100
AcDbLine
 10
-49.09950999999999
 20
-42.870234
 30
0.0
 11
-49.09950999999999
 21
-42.29823399999999
 31
0.0
  0
LINE
  5
FD
330
22
100
AcDbEntity
  8
2
370
    25
100
AcDbLine
 10
-49.09950999999999
 20
-42.29823399999999
 30
0.0
 11
-49.09950999999999
 21
-25.592234
 31
0.0
  0
LINE
  5
FE
330
22
100
AcDbEntity
  8
2
370
    50
100
AcDbLine
 10
-62.84950999999999
 20
-20.945234
 30
0.0
 11
-61.34951
 21
-20.945234
 31
0.0
  0
LINE
  5
FF
330
22
100
AcDbEntity
  8
2
370
    50
100
AcDbLine
 10
-80.84951
 20
-20.945234
 30
0.0
 11
-79.34950999999999
 21
-20.945234
 31
0.0
  0
LINE
  5
100
330
22
100
AcDbEntity
  8
2
370
    50
100
AcDbLine
 10
-66.59950999999999
 20
-35.445234
 30
0.0
 11
-63.138185
 21
-35.445234
 31
0.0
  0
LINE
  5
101
330
22
100
AcDbEntity
  8
2
370
    50
100
AcDbLine
 10
-79.439256
 20
-35.445234
 30
0.0
 11
-75.59950999999999
 21
-35.445234
 31
0.0
  0
LINE
  5
102
330
22
100
AcDbEntity
  8
2
370
    50
100
AcDbLine
 10
-62.84950999999999
 20
-30.945234
 30
0.0
 11
-59.55124399999999
 21
-25.23247
 31
0.0
  0
LINE
  5
103
330
22
100
AcDbEntity
  8
2
370
    50
100
AcDbLine
 10
-61.40613399999999
 20
-34.445234
 30
0.0
 11
-56.777668
 21
-26.428495
 31
0.0
  0
ARC
  5
104
330
22
100
AcDbEntity
  8
2
370
    50
100
AcDbCircle
 10
-61.28329499999999
 20
-24.23247
 30
0.0
 40
2.0
100
AcDbArc
 50
330.0
 51
45.359858
  0
ARC
  5
105
330
22
100
AcDbEntity
  8
2
370
    50
100
AcDbCircle
 10
-55.045617
 20
-27.428495
 30
0.0
 40
2.0
100
AcDbArc
 50
80.381283
 51
150.0
  0
ARC
  5
106
330
22
100
AcDbEntity
  8
2
370
    50
100
AcDbCircle
 10
-63.138185
 20
-33.445234
 30
0.0
 40
2.0
100
AcDbArc
 50
270.0
 51
330.0
  0
LINE
  5
107
330
22
100
AcDbEntity
  8
2
370
    25
100
AcDbLine
 10
-80.84951
 20
-6.795233999999999
 30
0.0
 11
-75.84951
 21
-6.795233999999999
 31
0.0
  0
LINE
  5
108
330
22
100
AcDbEntity
  8
2
370
    25
100
AcDbLine
 10
-66.34951
 20
-6.795233999999999
 30
0.0
 11
-61.34951
 21
-6.795233999999999
 31
0.0
  0
LINE
  5
109
330
22
100
AcDbEntity
  8
2
370
    50
100
AcDbLine
 10
-82.49951000000001
 20
-3.945233999999999
 30
0.0
 11
-75.84951
 21
-3.945233999999999
 31
0.0
  0
LINE
  5
10A
330
22
100
AcDbEntity
  8
2
370
    50
100
AcDbLine
 10
-66.34951
 20
-3.945233999999999
 30
0.0
 11
-59.69951
 21
-3.945233999999999
 31
0.0
  0
LINE
  5
10B
330
22
100
AcDbEntity
  8
2
370
    50
100
AcDbLine
 10
-60.09951
 20
-2.945234
 30
0.0
 11
-60.09951
 21
-3.945233999999999
 31
0.0
  0
ARC
  5
10C
330
22
100
AcDbEntity
  8
2
370
    50
100
AcDbCircle
 10
-62.203761
 20
-5.945233999999999
 30
0.0
 40
5.0
100
AcDbArc
 50
315.572996
 51
44.42700399999999
  0
ARC
  5
10D
330
22
100
AcDbEntity
  8
2
370
    50
100
AcDbCircle
 10
-80.062332
 20
-5.945233999999999
 30
0.0
 40
5.0
100
AcDbArc
 50
135.572996
 51
224.427004
  0
LINE
  5
10E
330
22
100
AcDbEntity
  8
2
370
    50
100
AcDbLine
 10
-65.03733199999999
 20
2.554765999999999
 30
0.0
 11
-58.633047
 21
-2.445234
 31
0.0
  0
LINE
  5
10F
330
22
100
AcDbEntity
  8
2
370
    50
100
AcDbLine
 10
-77.03733199999999
 20
2.554765999999999
 30
0.0
 11
-83.63304699999998
 21
-2.445234
 31
0.0
  0
LINE
  5
110
330
22
100
AcDbEntity
  8
2
370
    50
100
AcDbLine
 10
-76.03733199999999
 20
0.554766
 30
0.0
 11
-76.03733199999999
 21
2.354766
 31
0.0
  0
LINE
  5
111
330
22
100
AcDbEntity
  8
2
370
    25
100
AcDbLine
 10
-75.84951
 20
0.554766
 30
0.0
 11
-76.03733199999999
 21
0.554766
 31
0.0
  0
LINE
  5
112
330
22
100
AcDbEntity
  8
2
370
    50
100
AcDbLine
 10
-76.03733199999999
 20
2.354766
 30
0.0
 11
-76.237332
 21
2.554765999999999
 31
0.0
  0
LINE
  5
113
330
22
100
AcDbEntity
  8
2
370
    25
100
AcDbLine
 10
-76.03733199999999
 20
2.354766
 30
0.0
 11
-75.84951
 21
2.354766
 31
0.0
  0
LINE
  5
114
330
22
100
AcDbEntity
  8
2
370
    50
100
AcDbLine
 10
-82.49951000000001
 20
-3.176174
 30
0.0
 11
-76.03733199999999
 21
0.554766
 31
0.0
  0
LINE
  5
115
330
22
100
AcDbEntity
  8
2
370
    50
100
AcDbLine
 10
-82.09951
 20
-2.945234
 30
0.0
 11
-82.09951
 21
-3.945233999999999
 31
0.0
  0
ARC
  5
116
330
22
100
AcDbEntity
  8
2
370
    50
100
AcDbCircle
 10
-46.427353
 20
1.914516999999999
 30
0.0
 40
30.0
100
AcDbArc
 50
186.877581
 51
191.263712
  0
LINE
  5
117
330
22
100
AcDbEntity
  8
2
370
    50
100
AcDbLine
 10
-77.49951
 20
-3.345233999999999
 30
0.0
 11
-77.49951
 21
-3.945233999999999
 31
0.0
  0
LINE
  5
118
330
22
100
AcDbEntity
  8
2
370
    50
100
AcDbLine
 10
-76.742251
 20
-3.165327999999999
 30
0.0
 11
-76.34951
 21
-3.945233999999999
 31
0.0
  0
ARC
  5
119
330
22
100
AcDbEntity
  8
2
370
    50
100
AcDbCircle
 10
-77.09951
 20
-3.345233999999999
 30
0.0
 40
0.4
100
AcDbArc
 50
26.728686
 51
180.0
  0
ARC
  5
11A
330
22
100
AcDbEntity
  8
2
370
    50
100
AcDbCircle
 10
-65.69951
 20
-1.095234
 30
0.0
 40
0.65
100
AcDbArc
 50
90.0
 51
243.696812
  0
ARC
  5
11B
330
22
100
AcDbEntity
  8
2
370
    50
100
AcDbCircle
 10
-95.77166700000001
 20
1.914516999999999
 30
0.0
 40
30.0
100
AcDbArc
 50
348.736288
 51
353.122419
  0
LINE
  5
11C
330
22
100
AcDbEntity
  8
2
370
    50
100
AcDbLine
 10
-65.45676800000001
 20
-3.165327999999999
 30
0.0
 11
-65.84951
 21
-3.945233999999999
 31
0.0
  0
LINE
  5
11D
330
22
100
AcDbEntity
  8
2
370
    50
100
AcDbLine
 10
-64.69951
 20
-3.345233999999999
 30
0.0
 11
-64.69951
 21
-3.945233999999999
 31
0.0
  0
ARC
  5
11E
330
22
100
AcDbEntity
  8
2
370
    50
100
AcDbCircle
 10
-65.09951
 20
-3.345233999999999
 30
0.0
 40
0.4
100
AcDbArc
 50
0.0
 51
153.271314
  0
LINE
  5
11F
330
22
100
AcDbEntity
  8
2
370
    50
100
AcDbLine
 10
-66.161688
 20
0.554766
 30
0.0
 11
-66.161688
 21
2.354766
 31
0.0
  0
LINE
  5
120
330
22
100
AcDbEntity
  8
2
370
    50
100
AcDbLine
 10
-66.161688
 20
2.354766
 30
0.0
 11
-65.961688
 21
2.554765999999999
 31
0.0
  0
LINE
  5
121
330
22
100
AcDbEntity
  8
2
370
    25
100
AcDbLine
 10
-66.161688
 20
2.354766
 30
0.0
 11
-66.34951
 21
2.354766
 31
0.0
  0
LINE
  5
122
330
22
100
AcDbEntity
  8
2
370
    50
100
AcDbLine
 10
-77.03733199999999
 20
2.554765999999999
 30
0.0
 11
-75.84951
 21
2.554765999999999
 31
0.0
  0
LINE
  5
123
330
22
100
AcDbEntity
  8
2
370
    50
100
AcDbLine
 10
-66.34951
 20
2.554765999999999
 30
0.0
 11
-65.03733199999999
 21
2.554765999999999
 31
0.0
  0
LINE
  5
124
330
22
100
AcDbEntity
  8
2
370
    50
100
AcDbLine
 10
-59.69951
 20
-3.176174
 30
0.0
 11
-66.161688
 21
0.554766
 31
0.0
  0
LINE
  5
125
330
22
100
AcDbEntity
  8
2
370
    50
100
AcDbLine
 10
-66.34951
 20
-0.4452340000000001
 30
0.0
 11
-64.42963699999999
 21
-0.4452340000000001
 31
0.0
  0
LINE
  5
126
330
22
100
AcDbEntity
  8
2
370
    50
100
AcDbLine
 10
-77.76938299999999
 20
-0.4452340000000001
 30
0.0
 11
-75.84951
 21
-0.4452340000000001
 31
0.0
  0
LINE
  5
127
330
22
100
AcDbEntity
  8
2
370
    50
100
AcDbLine
 10
-83.63304699999998
 20
-9.445233999999999
 30
0.0
 11
-83.099471
 21
-9.445233999999999
 31
0.0
  0
LINE
  5
128
330
22
100
AcDbEntity
  8
2
370
    50
100
AcDbLine
 10
-58.633047
 20
-9.445233999999999
 30
0.0
 11
-59.099471
 21
-9.445233999999999
 31
0.0
  0
LINE
  5
129
330
22
100
AcDbEntity
  8
2
370
    25
100
AcDbLine
 10
-77.02108299999999
 20
-0.4452340000000001
 30
0.0
 11
-80.52108299999998
 21
-3.945233999999999
 31
0.0
  0
LINE
  5
12A
330
22
100
AcDbEntity
  8
2
370
    25
100
AcDbLine
 10
-76.11952200000001
 20
-2.372100999999999
 30
0.0
 11
-76.81326099999999
 21
-3.065838999999999
 31
0.0
  0
LINE
  5
12B
330
22
100
AcDbEntity
  8
2
370
    25
100
AcDbLine
 10
-63.989981
 20
-0.6990689999999999
 30
0.0
 11
-66.154638
 21
-2.863725999999999
 31
0.0
  0
LINE
  5
12C
330
22
100
AcDbEntity
  8
2
370
    25
100
AcDbLine
 10
-62.19683
 20
-1.734345999999999
 30
0.0
 11
-64.407719
 21
-3.945233999999999
 31
0.0
  0
LINE
  5
12D
330
22
100
AcDbEntity
  8
2
370
    25
100
AcDbLine
 10
-60.403679
 20
-2.769622
 30
0.0
 11
-61.579292
 21
-3.945233999999999
 31
0.0
  0
ARC
  5
12E
330
22
100
AcDbEntity
  8
2
370
    50
100
AcDbCircle
 10
-76.49951
 20
-1.095234
 30
0.0
 40
0.65
100
AcDbArc
 50
296.303188
 51
90.0
  0
LINE
  5
12F
330
22
100
AcDbEntity
  8
2
370
    50
100
AcDbLine
 10
-80.89950999999999
 20
-5.245187
 30
0.0
 11
-75.84951
 21
-5.245187
 31
0.0
  0
LINE
  5
130
330
22
100
AcDbEntity
  8
2
370
    50
100
AcDbLine
 10
-66.34951
 20
-5.245187
 30
0.0
 11
-61.29951
 21
-5.245187
 31
0.0
  0
LINE
  5
131
330
22
100
AcDbEntity
  8
2
370
    50
100
AcDbLine
 10
-83.099471
 20
-9.445233999999999
 30
0.0
 11
-82.49951000000001
 21
-8.845272999999998
 31
0.0
  0
LINE
  5
132
330
22
100
AcDbEntity
  8
2
370
    50
100
AcDbLine
 10
-59.099471
 20
-9.445233999999999
 30
0.0
 11
-59.69951
 21
-8.845195
 31
0.0
  0
LINE
  5
133
330
22
100
AcDbEntity
  8
2
370
    50
100
AcDbLine
 10
-66.161688
 20
0.554766
 30
0.0
 11
-66.34951
 21
0.554766
 31
0.0
  0
LINE
  5
134
330
22
100
AcDbEntity
  8
2
370
    50
100
AcDbLine
 10
-59.09950999999999
 20
-4.245594
 30
0.0
 11
-59.69951
 21
-3.176174
 31
0.0
  0
LINE
  5
135
330
22
100
AcDbEntity
  8
2
370
    50
100
AcDbLine
 10
-83.09950999999999
 20
-4.245594
 30
0.0
 11
-82.49951000000001
 21
-3.176174
 31
0.0
  0
LINE
  5
136
330
22
100
AcDbEntity
  8
2
370
    50
100
AcDbLine
 10
-61.34951
 20
-12.445234
 30
0.0
 11
-61.34951
 21
-19.445234
 31
0.0
  0
LINE
  5
137
330
22
100
AcDbEntity
  8
2
370
    50
100
AcDbLine
 10
-61.34951
 20
-12.445234
 30
0.0
 11
-61.34951
 21
-19.445234
 31
0.0
  0
LINE
  5
138
330
22
100
AcDbEntity
  8
2
370
    50
100
AcDbLine
 10
-61.34951
 20
-12.445234
 30
0.0
 11
-61.34951
 21
-19.445234
 31
0.0
  0
LINE
  5
139
330
22
100
AcDbEntity
  8
2
370
    50
100
AcDbLine
 10
-80.84951
 20
-12.445234
 30
0.0
 11
-80.84951
 21
-19.445234
 31
0.0
  0
LINE
  5
13A
330
22
100
AcDbEntity
  8
2
370
    50
100
AcDbLine
 10
-80.84951
 20
-12.445234
 30
0.0
 11
-80.84951
 21
-19.445234
 31
0.0
  0
LINE
  5
13B
330
22
100
AcDbEntity
  8
2
370
    50
100
AcDbLine
 10
-34.882916
 20
-23.545234
 30
0.0
 11
-45.678403
 21
-23.777703
 31
0.0
  0
LINE
  5
13C
330
22
100
AcDbEntity
  8
2
370
    50
100
AcDbLine
 10
-45.678403
 20
-44.11276599999999
 30
0.0
 11
-34.882916
 21
-44.345234
 31
0.0
  0
LINE
  5
13D
330
22
100
AcDbEntity
  8
2
370
    50
100
AcDbLine
 10
-36.09951
 20
-23.466659
 30
0.0
 11
-37.31610300000001
 21
-24.683253
 31
0.0
  0
LINE
  5
13E
330
22
100
AcDbEntity
  8
2
370
    50
100
AcDbLine
 10
-46.88291599999999
 20
-24.982216
 30
0.0
 11
-46.88291599999999
 21
-42.908253
 31
0.0
  0
LINE
  5
13F
330
22
100
AcDbEntity
  8
2
370
    50
100
AcDbLine
 10
-46.88291599999999
 20
-24.982216
 30
0.0
 11
-45.678403
 21
-23.777703
 31
0.0
  0
LINE
  5
140
330
22
100
AcDbEntity
  8
2
370
    50
100
AcDbLine
 10
-46.88291599999999
 20
-42.908253
 30
0.0
 11
-45.678403
 21
-44.11276599999999
 31
0.0
  0
LINE
  5
141
330
22
100
AcDbEntity
  8
2
370
    50
100
AcDbLine
 10
-36.09951
 20
-46.44523399999999
 30
0.0
 11
-36.09951
 21
-44.319036
 31
0.0
  0
LINE
  5
142
330
22
100
AcDbEntity
  8
2
370
    50
100
AcDbLine
 10
-36.09951
 20
-23.571432
 30
0.0
 11
-36.09951
 21
-21.445234
 31
0.0
  0
LINE
  5
143
330
22
100
AcDbEntity
  8
2
370
    50
100
AcDbLine
 10
-34.882916
 20
-24.607216
 30
0.0
 11
-33.820935
 21
-23.545234
 31
0.0
  0
LINE
  5
144
330
22
100
AcDbEntity
  8
2
370
    50
100
AcDbLine
 10
-34.882916
 20
-43.283253
 30
0.0
 11
-33.820935
 21
-44.345234
 31
0.0
  0
LINE
  5
145
330
22
100
AcDbEntity
  8
2
370
    25
100
AcDbLine
 10
-34.882916
 20
-24.607216
 30
0.0
 11
-37.31610300000001
 21
-24.683253
 31
0.0
  0
LINE
  5
146
330
22
100
AcDbEntity
  8
2
370
    50
100
AcDbLine
 10
-37.31610300000001
 20
-24.683253
 30
0.0
 11
-48.09950999999999
 21
-25.020234
 31
0.0
  0
LINE
  5
147
330
22
100
AcDbEntity
  8
2
370
    25
100
AcDbLine
 10
-34.882916
 20
-43.283253
 30
0.0
 11
-37.31610300000001
 21
-43.20721599999999
 31
0.0
  0
LINE
  5
148
330
22
100
AcDbEntity
  8
2
370
    50
100
AcDbLine
 10
-37.31610300000001
 20
-43.20721599999999
 30
0.0
 11
-48.09950999999999
 21
-42.870234
 31
0.0
  0
LINE
  5
149
330
22
100
AcDbEntity
  8
2
370
    50
100
AcDbLine
 10
39.280899
 20
-24.607216
 30
0.0
 11
38.218917
 21
-23.545234
 31
0.0
  0
LINE
  5
14A
330
22
100
AcDbEntity
  8
2
370
    50
100
AcDbLine
 10
39.280899
 20
-43.283253
 30
0.0
 11
38.218917
 21
-44.345234
 31
0.0
  0
LINE
  5
14B
330
22
100
AcDbEntity
  8
2
370
    25
100
AcDbLine
 10
39.280899
 20
-43.283253
 30
0.0
 11
51.28089899999999
 21
-42.908253
 31
0.0
  0
LINE
  5
14C
330
22
100
AcDbEntity
  8
2
370
    25
100
AcDbLine
 10
39.280899
 20
-24.607216
 30
0.0
 11
51.28089899999999
 21
-24.982216
 31
0.0
  0
LINE
  5
14D
330
22
100
AcDbEntity
  8
2
370
    50
100
AcDbLine
 10
51.28089899999999
 20
-24.982216
 30
0.0
 11
50.07638599999999
 21
-23.777703
 31
0.0
  0
LINE
  5
14E
330
22
100
AcDbEntity
  8
2
370
    50
100
AcDbLine
 10
50.07638599999999
 20
-44.11276599999999
 30
0.0
 11
39.280899
 21
-44.345234
 31
0.0
  0
LINE
  5
14F
330
22
100
AcDbEntity
  8
2
370
    50
100
AcDbLine
 10
39.280899
 20
-23.545234
 30
0.0
 11
50.07638599999999
 21
-23.777703
 31
0.0
  0
LWPOLYLINE
  5
150
330
22
100
AcDbEntity
  8
2
370
    50
100
AcDbPolyline
 90
       21
 70
     0
 43
0.0
 10
0.025878
 20
-44.345234
 10
0.023151
 20
-44.33833299999999
 10
0.020429
 20
-44.33142899999999
 10
0.017711
 20
-44.324523
 10
0.014998
 20
-44.317613
 10
0.01229
 20
-44.3107
 10
-0.224402
 20
-43.634019
 10
-0.4098310000000001
 20
-42.93929499999999
 10
-0.5373359999999999
 20
-42.23541199999999
 10
-0.600253
 20
-41.531253
 10
-0.5919210000000001
 20
-40.835702
 10
-0.322537
 20
-39.380257
 10
0.229028
 20
-37.985295
 10
0.978382
 20
-36.62901
 10
1.841133
 20
-35.289592
 10
2.732889
 20
-33.945234
 10
3.947037
 20
-31.949208
 10
5.019083
 20
-29.903911
 10
5.924034999999999
 20
-27.816627
 10
6.636897999999999
 20
-25.69464
 10
7.132675999999999
 20
-23.545234
  0
LWPOLYLINE
  5
167
330
22
100
AcDbEntity
  8
2
370
    50
100
AcDbPolyline
 90
       20
 70
     0
 43
0.0
 10
-1.041918
 20
-44.345234
 10
-1.226920999999999
 20
-43.77239799999999
 10
-1.379201
 20
-43.18637
 10
-1.495437999999999
 20
-42.59005199999999
 10
-1.572001
 20
-41.98634000000001
 10
-1.604891
 20
-41.37819299999999
 10
-1.589678
 20
-40.768762
 10
-1.356465999999999
 20
-39.36385900000001
 10
-0.9001479999999999
 20
-38.051063
 10
-0.289933
 20
-36.81809600000001
 10
0.41405
 20
-35.644585
 10
1.158565
 20
-34.510879
 10
1.89387
 20
-33.401133
 10
2.556554
 20
-32.343932
 10
3.179793
 20
-31.273814
 10
3.759663999999999
 20
-30.192258
 10
5.200702999999999
 20
-26.89386
 10
5.569109
 20
-25.781389
 10
5.875556999999999
 20
-24.664758
 10
6.116591999999999
 20
-23.545234
  0
LINE
  5
17D
330
22
100
AcDbEntity
  8
2
370
    50
100
AcDbLine
 10
51.28089899999999
 20
-42.19523399999999
 30
0.0
 11
-0.542716
 21
-42.19523399999999
 31
0.0
  0
LINE
  5
17E
330
22
100
AcDbEntity
  8
2
370
    50
100
AcDbLine
 10
-1.550314999999999
 20
-42.19523399999999
 30
0.0
 11
-46.88291599999999
 21
-42.19523399999999
 31
0.0
  0
LINE
  5
17F
330
22
100
AcDbEntity
  8
2
370
    50
100
AcDbLine
 10
39.280899
 20
-44.345234
 30
0.0
 11
0.025878
 21
-44.345234
 31
0.0
  0
LINE
  5
180
330
22
100
AcDbEntity
  8
2
370
    50
100
AcDbLine
 10
-1.041918
 20
-44.345234
 30
0.0
 11
-34.882916
 21
-44.345234
 31
0.0
  0
LINE
  5
181
330
22
100
AcDbEntity
  8
2
370
    50
100
AcDbLine
 10
51.28089899999999
 20
-25.695234
 30
0.0
 11
6.636727999999999
 21
-25.695234
 31
0.0
  0
LINE
  5
182
330
22
100
AcDbEntity
  8
2
370
    50
100
AcDbLine
 10
5.595043
 20
-25.695234
 30
0.0
 11
-46.88291599999999
 21
-25.695234
 31
0.0
  0
LINE
  5
183
330
22
100
AcDbEntity
  8
2
370
    50
100
AcDbLine
 10
39.280899
 20
-23.545234
 30
0.0
 11
7.132675999999999
 21
-23.545234
 31
0.0
  0
LINE
  5
184
330
22
100
AcDbEntity
  8
2
370
    50
100
AcDbLine
 10
6.116591999999999
 20
-23.545234
 30
0.0
 11
-34.882916
 21
-23.545234
 31
0.0
  0
LINE
  5
185
330
22
100
AcDbEntity
  8
2
370
    50
100
AcDbLine
 10
51.28089899999999
 20
-24.982216
 30
0.0
 11
51.28089899999999
 21
-42.908253
 31
0.0
  0
LINE
  5
186
330
22
100
AcDbEntity
  8
2
370
    50
100
AcDbLine
 10
26.476509
 20
-3.945233999999999
 30
0.0
 11
35.476509
 21
-3.945233999999999
 31
0.0
  0
LINE
  5
187
330
22
100
AcDbEntity
  8
2
370
    50
100
AcDbLine
 10
26.476509
 20
-63.945234
 30
0.0
 11
35.476509
 21
-63.945234
 31
0.0
  0
ARC
  5
188
330
22
100
AcDbEntity
  8
2
370
    50
100
AcDbCircle
 10
26.476509
 20
-11.945234
 30
0.0
 40
8.0
100
AcDbArc
 50
90.0
 51
180.0
  0
ARC
  5
189
330
22
100
AcDbEntity
  8
2
370
    50
100
AcDbCircle
 10
26.476509
 20
-55.94523399999999
 30
0.0
 40
8.0
100
AcDbArc
 50
180.0
 51
270.0
  0
LINE
  5
18A
330
22
100
AcDbEntity
  8
2
370
    50
100
AcDbLine
 10
26.476509
 20
-4.445233999999999
 30
0.0
 11
35.476509
 21
-4.445233999999999
 31
0.0
  0
ARC
  5
18B
330
22
100
AcDbEntity
  8
2
370
    50
100
AcDbCircle
 10
26.476509
 20
-11.945234
 30
0.0
 40
7.5
100
AcDbArc
 50
90.0
 51
180.0
  0
ARC
  5
18C
330
22
100
AcDbEntity
  8
2
370
    50
100
AcDbCircle
 10
26.476509
 20
-55.94523399999999
 30
0.0
 40
7.5
100
AcDbArc
 50
180.0
 51
270.0
  0
LINE
  5
18D
330
22
100
AcDbEntity
  8
2
370
    50
100
AcDbLine
 10
26.476509
 20
-63.44523399999999
 30
0.0
 11
35.476509
 21
-63.44523399999999
 31
0.0
  0
LINE
  5
18E
330
22
100
AcDbEntity
  8
2
370
    50
100
AcDbLine
 10
25.476509
 20
-23.045234
 30
0.0
 11
20.976509
 21
-23.045234
 31
0.0
  0
LINE
  5
18F
330
22
100
AcDbEntity
  8
2
370
    50
100
AcDbLine
 10
25.476509
 20
-44.845234
 30
0.0
 11
20.976509
 21
-44.845234
 31
0.0
  0
LINE
  5
190
330
22
100
AcDbEntity
  8
2
370
    50
100
AcDbLine
 10
18.976509
 20
-55.94523399999999
 30
0.0
 11
18.976509
 21
-46.845234
 31
0.0
  0
LINE
  5
191
330
22
100
AcDbEntity
  8
2
370
    50
100
AcDbLine
 10
18.976509
 20
-21.045234
 30
0.0
 11
18.976509
 21
-11.945234
 31
0.0
  0
ARC
  5
192
330
22
100
AcDbEntity
  8
2
370
    50
100
AcDbCircle
 10
20.976509
 20
-21.045234
 30
0.0
 40
2.0
100
AcDbArc
 50
180.0
 51
270.0
  0
ARC
  5
193
330
22
100
AcDbEntity
  8
2
370
    50
100
AcDbCircle
 10
20.976509
 20
-46.845234
 30
0.0
 40
2.0
100
AcDbArc
 50
90.0
 51
180.0
  0
ARC
  5
194
330
22
100
AcDbEntity
  8
2
370
    50
100
AcDbCircle
 10
20.976509
 20
-21.045234
 30
0.0
 40
2.5
100
AcDbArc
 50
180.0
 51
270.0
  0
ARC
  5
195
330
22
100
AcDbEntity
  8
2
370
    50
100
AcDbCircle
 10
20.976509
 20
-46.845234
 30
0.0
 40
2.5
100
AcDbArc
 50
90.0
 51
180.0
  0
LINE
  5
196
330
22
100
AcDbEntity
  8
2
370
    50
100
AcDbLine
 10
18.476509
 20
-55.94523399999999
 30
0.0
 11
18.476509
 21
-46.845234
 31
0.0
  0
LINE
  5
197
330
22
100
AcDbEntity
  8
2
370
    50
100
AcDbLine
 10
18.476509
 20
-21.045234
 30
0.0
 11
18.476509
 21
-11.945234
 31
0.0
  0
LINE
  5
198
330
22
100
AcDbEntity
  8
2
370
    50
100
AcDbLine
 10
25.476509
 20
-44.845234
 30
0.0
 11
25.476509
 21
-44.345234
 31
0.0
  0
LINE
  5
199
330
22
100
AcDbEntity
  8
2
370
    50
100
AcDbLine
 10
25.476509
 20
-23.545234
 30
0.0
 11
25.476509
 21
-23.045234
 31
0.0
  0
LINE
  5
19A
330
22
100
AcDbEntity
  8
2
370
    50
100
AcDbLine
 10
51.28089899999999
 20
73.46559899999999
 30
0.0
 11
51.28089899999999
 21
91.39163600000001
 31
0.0
  0
LINE
  5
19B
330
22
100
AcDbEntity
  8
2
370
    50
100
AcDbLine
 10
-34.882916
 20
92.82861700000001
 30
0.0
 11
-36.09951
 21
92.80241999999999
 31
0.0
  0
LINE
  5
19C
330
22
100
AcDbEntity
  8
2
370
    50
100
AcDbLine
 10
-36.09951
 20
72.05481500000001
 30
0.0
 11
-34.882916
 21
72.02861700000001
 31
0.0
  0
LINE
  5
19D
330
22
100
AcDbEntity
  8
2
370
    50
100
AcDbLine
 10
-34.882916
 20
91.76663600000001
 30
0.0
 11
-33.820935
 21
92.82861700000001
 31
0.0
  0
LINE
  5
19E
330
22
100
AcDbEntity
  8
2
370
    50
100
AcDbLine
 10
-34.882916
 20
73.090599
 30
0.0
 11
-33.820935
 21
72.02861700000001
 31
0.0
  0
LINE
  5
19F
330
22
100
AcDbEntity
  8
2
370
    50
100
AcDbLine
 10
-34.882916
 20
73.090599
 30
0.0
 11
-36.09951
 21
73.128617
 31
0.0
  0
LINE
  5
1A0
330
22
100
AcDbEntity
  8
2
370
    50
100
AcDbLine
 10
39.280899
 20
91.76663600000001
 30
0.0
 11
38.218917
 21
92.82861700000001
 31
0.0
  0
LINE
  5
1A1
330
22
100
AcDbEntity
  8
2
370
    50
100
AcDbLine
 10
39.280899
 20
73.090599
 30
0.0
 11
38.218917
 21
72.02861700000001
 31
0.0
  0
LINE
  5
1A2
330
22
100
AcDbEntity
  8
2
370
    25
100
AcDbLine
 10
39.280899
 20
73.090599
 30
0.0
 11
51.28089899999999
 21
73.46559899999999
 31
0.0
  0
LINE
  5
1A3
330
22
100
AcDbEntity
  8
2
370
    25
100
AcDbLine
 10
39.280899
 20
91.76663600000001
 30
0.0
 11
51.28089899999999
 21
91.39163600000001
 31
0.0
  0
LINE
  5
1A4
330
22
100
AcDbEntity
  8
2
370
    50
100
AcDbLine
 10
51.28089899999999
 20
91.39163600000001
 30
0.0
 11
50.07638599999999
 21
92.596149
 31
0.0
  0
LINE
  5
1A5
330
22
100
AcDbEntity
  8
2
370
    50
100
AcDbLine
 10
51.28089899999999
 20
73.46559899999999
 30
0.0
 11
50.07638599999999
 21
72.26108599999999
 31
0.0
  0
LINE
  5
1A6
330
22
100
AcDbEntity
  8
2
370
    50
100
AcDbLine
 10
50.07638599999999
 20
72.26108599999999
 30
0.0
 11
39.280899
 21
72.02861700000001
 31
0.0
  0
LINE
  5
1A7
330
22
100
AcDbEntity
  8
2
370
    50
100
AcDbLine
 10
39.280899
 20
92.82861700000001
 30
0.0
 11
50.07638599999999
 21
92.596149
 31
0.0
  0
LINE
  5
1A8
330
22
100
AcDbEntity
  8
2
370
    50
100
AcDbLine
 10
35.476509
 20
112.428617
 30
0.0
 11
26.476509
 21
112.428617
 31
0.0
  0
LINE
  5
1A9
330
22
100
AcDbEntity
  8
2
370
    50
100
AcDbLine
 10
26.476509
 20
52.42861699999999
 30
0.0
 11
35.476509
 21
52.42861699999999
 31
0.0
  0
ARC
  5
1AA
330
22
100
AcDbEntity
  8
2
370
    50
100
AcDbCircle
 10
26.476509
 20
104.428617
 30
0.0
 40
8.0
100
AcDbArc
 50
90.0
 51
180.0
  0
ARC
  5
1AB
330
22
100
AcDbEntity
  8
2
370
    50
100
AcDbCircle
 10
26.476509
 20
60.428617
 30
0.0
 40
8.0
100
AcDbArc
 50
180.0
 51
270.0
  0
LINE
  5
1AC
330
22
100
AcDbEntity
  8
2
370
    50
100
AcDbLine
 10
18.476509
 20
60.428617
 30
0.0
 11
18.476509
 21
104.428617
 31
0.0
  0
LINE
  5
1AD
330
22
100
AcDbEntity
  8
2
370
    50
100
AcDbLine
 10
-34.882916
 20
91.76663600000001
 30
0.0
 11
-36.09951
 21
91.728617
 31
0.0
  0
LINE
  5
1AE
330
22
100
AcDbEntity
  8
2
370
    50
100
AcDbLine
 10
-34.882916
 20
91.76663600000001
 30
0.0
 11
-34.882916
 21
73.090599
 31
0.0
  0
LINE
  5
1AF
330
22
100
AcDbEntity
  8
2
370
    50
100
AcDbLine
 10
39.280899
 20
91.76663600000001
 30
0.0
 11
39.280899
 21
73.090599
 31
0.0
  0
LINE
  5
1B0
330
22
100
AcDbEntity
  8
2
370
    25
100
AcDbLine
 10
50.07638599999999
 20
92.596149
 30
0.0
 11
50.07638599999999
 21
72.26108599999999
 31
0.0
  0
LINE
  5
1B1
330
22
100
AcDbEntity
  8
2
370
    50
100
AcDbLine
 10
35.476509
 20
92.82861700000001
 30
0.0
 11
39.280899
 21
92.82861700000001
 31
0.0
  0
LINE
  5
1B2
330
22
100
AcDbEntity
  8
2
370
    50
100
AcDbLine
 10
35.476509
 20
72.02861700000001
 30
0.0
 11
39.280899
 21
72.02861700000001
 31
0.0
  0
LINE
  5
1B3
330
22
100
AcDbEntity
  8
2
370
    50
100
AcDbLine
 10
-89.89950999999999
 20
92.90611700000001
 30
0.0
 11
-89.89950999999999
 21
71.95111700000001
 31
0.0
  0
ARC
  5
1B4
330
22
100
AcDbEntity
  8
2
370
    50
100
AcDbCircle
 10
-0.406457
 20
87.628617
 30
0.0
 40
8.666667
100
AcDbArc
 50
143.130102
 51
216.869898
  0
ARC
  5
1B5
330
22
100
AcDbEntity
  8
2
370
    50
100
AcDbCircle
 10
-14.273123
 20
77.228617
 30
0.0
 40
8.666667
100
AcDbArc
 50
323.130102
 51
36.869898
  0
ARC
  5
1B6
330
22
100
AcDbEntity
  8
2
370
    50
100
AcDbCircle
 10
-14.273123
 20
87.628617
 30
0.0
 40
8.666667
100
AcDbArc
 50
323.130102
 51
36.869898
  0
ARC
  5
1B7
330
22
100
AcDbEntity
  8
2
370
    50
100
AcDbCircle
 10
-4.406456999999999
 20
87.62861800000001
 30
0.0
 40
8.666667
100
AcDbArc
 50
143.130102
 51
216.869898
  0
ARC
  5
1B8
330
22
100
AcDbEntity
  8
2
370
    50
100
AcDbCircle
 10
-18.273123
 20
77.228617
 30
0.0
 40
8.666667
100
AcDbArc
 50
323.130102
 51
36.869898
  0
ARC
  5
1B9
330
22
100
AcDbEntity
  8
2
370
    50
100
AcDbCircle
 10
-4.406456999999999
 20
77.228617
 30
0.0
 40
8.666667
100
AcDbArc
 50
143.130102
 51
216.869898
  0
LINE
  5
1BA
330
22
100
AcDbEntity
  8
2
370
    50
100
AcDbLine
 10
-34.882916
 20
92.82861700000001
 30
0.0
 11
-11.33979
 21
92.82861700000001
 31
0.0
  0
LINE
  5
1BB
330
22
100
AcDbEntity
  8
2
370
    50
100
AcDbLine
 10
-7.339789999999999
 20
92.82861700000001
 30
0.0
 11
18.476509
 21
92.82861700000001
 31
0.0
  0
LINE
  5
1BC
330
22
100
AcDbEntity
  8
2
370
    50
100
AcDbLine
 10
-34.882916
 20
72.02861700000001
 30
0.0
 11
-11.33979
 21
72.02861700000001
 31
0.0
  0
LINE
  5
1BD
330
22
100
AcDbEntity
  8
2
370
    50
100
AcDbLine
 10
-7.339789999999999
 20
72.02861700000001
 30
0.0
 11
18.476509
 21
72.02861700000001
 31
0.0
  0
LWPOLYLINE
  5
1BE
330
22
100
AcDbEntity
  8
2
370
    25
100
AcDbPolyline
 90
        3
 70
     0
 43
0.0
 10
-41.044996
 20
-44.269263
 10
-33.047233
 20
-68.14230400000001
 10
-1.876055
 20
-68.14230400000001
  0
LINE
  5
1C3
330
22
100
AcDbEntity
  8
2
370
    25
100
AcDbLine
 10
-40.431324
 20
-46.101054
 30
0.0
 11
-39.940497
 21
-45.93662
 31
0.0
  0
LINE
  5
1C4
330
22
100
AcDbEntity
  8
2
370
    25
100
AcDbLine
 10
-39.940497
 20
-45.93662
 30
0.0
 11
-41.044996
 21
-44.269263
 31
0.0
  0
LINE
  5
1C5
330
22
100
AcDbEntity
  8
2
370
    25
100
AcDbLine
 10
-41.044996
 20
-44.269263
 30
0.0
 11
-40.92215099999999
 21
-46.26548699999999
 31
0.0
  0
LINE
  5
1C6
330
22
100
AcDbEntity
  8
2
370
    25
100
AcDbLine
 10
-40.92215099999999
 20
-46.26548699999999
 30
0.0
 11
-40.431324
 21
-46.101054
 31
0.0
  0
DIMENSION
  5
1C7
330
22
100
AcDbEntity
  8
2
370
    25
100
AcDbDimension
280
     0
  2
*D0
 10
-36.09951
 20
-67.56059599999999
 30
0.0
 11
-55.59950999999999
 21
-65.06059599999999
 31
0.0
 70
     1
 71
     0
 72
     0
 41
0.0
 42
0.0
 73
     0
 74
     0
 75
     0
  3
Standard
100
AcDbAlignedDimension
 13
-71.09950999999999
 23
-57.405672
 33
0.0
 14
-36.09951
 24
-46.44523399999999
 34
0.0
  0
LWPOLYLINE
  5
1F3
330
22
100
AcDbEntity
  8
2
370
    25
100
AcDbPolyline
 90
        3
 70
     0
 43
0.0
 10
45.76192
 20
-23.684796
 10
62.92889399999999
 20
9.349689999999998
 10
79.417974
 20
9.349689999999998
  0
LINE
  5
1F8
330
22
100
AcDbEntity
  8
2
370
    25
100
AcDbLine
 10
46.652737
 20
-21.970592
 30
0.0
 11
46.19341799999999
 21
-21.731898
 31
0.0
  0
LINE
  5
1F9
330
22
100
AcDbEntity
  8
2
370
    25
100
AcDbLine
 10
46.19341799999999
 20
-21.731898
 30
0.0
 11
45.76192
 21
-23.684796
 31
0.0
  0
LINE
  5
1FA
330
22
100
AcDbEntity
  8
2
370
    25
100
AcDbLine
 10
45.76192
 20
-23.684796
 30
0.0
 11
47.11205699999999
 21
-22.209286
 31
0.0
  0
LINE
  5
1FB
330
22
100
AcDbEntity
  8
2
370
    25
100
AcDbLine
 10
47.11205699999999
 20
-22.209286
 30
0.0
 11
46.652737
 21
-21.970592
 31
0.0
  0
ARC
  5
1FC
330
22
100
AcDbEntity
  8
2
370
    50
100
AcDbCircle
 10
-49.569061
 20
157.13507
 30
0.0
 40
62.706452
100
AcDbArc
 50
263.6443799999999
 51
270.0
  0
ARC
  5
1FD
330
22
100
AcDbEntity
  8
2
370
    50
100
AcDbCircle
 10
-49.569061
 20
7.722164999999999
 30
0.0
 40
62.706452
100
AcDbArc
 50
90.0
 51
96.35562
  0
LINE
  5
1FE
330
22
100
AcDbEntity
  8
2
370
    50
100
AcDbLine
 10
50.07638599999999
 20
-44.11276599999999
 30
0.0
 11
51.28089899999999
 21
-42.908253
 31
0.0
  0
CIRCLE
  5
1FF
330
22
100
AcDbEntity
  8
2
370
    50
100
AcDbCircle
 10
-71.099817
 20
82.428617
 30
0.0
 40
4.75
  0
CIRCLE
  5
200
330
22
100
AcDbEntity
  8
2
370
    25
100
AcDbCircle
 10
-71.099817
 20
82.428617
 30
0.0
 40
13.0
  0
LINE
  5
201
330
22
100
AcDbEntity
  8
2
370
    50
100
AcDbLine
 10
-76.583157
 20
95.42861700000001
 30
0.0
 11
-65.616478
 21
95.42861700000001
 31
0.0
  0
POINT
  5
202
330
22
100
AcDbEntity
  8
2
370
    50
100
AcDbPoint
 10
-71.099817
 20
82.428617
 30
0.0
  0
LINE
  5
203
330
22
100
AcDbEntity
  8
2
370
    50
100
AcDbLine
 10
-62.58315699999999
 20
93.677329
 30
0.0
 11
-57.099817
 21
84.17990600000001
 31
0.0
  0
LINE
  5
204
330
22
100
AcDbEntity
  8
2
370
    50
100
AcDbLine
 10
-57.099817
 20
80.67732900000001
 30
0.0
 11
-62.58315699999999
 21
71.179906
 31
0.0
  0
LINE
  5
205
330
22
100
AcDbEntity
  8
2
370
    50
100
AcDbLine
 10
-65.616478
 20
69.428617
 30
0.0
 11
-76.583157
 21
69.428617
 31
0.0
  0
LINE
  5
206
330
22
100
AcDbEntity
  8
2
370
    50
100
AcDbLine
 10
-79.616478
 20
71.179906
 30
0.0
 11
-85.099817
 21
80.67732900000001
 31
0.0
  0
LINE
  5
207
330
22
100
AcDbEntity
  8
2
370
    50
100
AcDbLine
 10
-85.099817
 20
84.17990600000001
 30
0.0
 11
-79.616478
 21
93.677329
 31
0.0
  0
LINE
  5
208
330
22
100
AcDbEntity
  8
2
370
    50
100
AcDbLine
 10
-57.099817
 20
84.17990600000001
 30
0.0
 11
-57.099817
 21
80.67732900000001
 31
0.0
  0
LINE
  5
209
330
22
100
AcDbEntity
  8
2
370
    50
100
AcDbLine
 10
-62.58315699999999
 20
71.179906
 30
0.0
 11
-65.616478
 21
69.428617
 31
0.0
  0
LINE
  5
20A
330
22
100
AcDbEntity
  8
2
370
    50
100
AcDbLine
 10
-76.583157
 20
69.428617
 30
0.0
 11
-79.616478
 21
71.179906
 31
0.0
  0
LINE
  5
20B
330
22
100
AcDbEntity
  8
2
370
    50
100
AcDbLine
 10
-85.099817
 20
80.67732900000001
 30
0.0
 11
-85.099817
 21
84.17990600000001
 31
0.0
  0
LINE
  5
20C
330
22
100
AcDbEntity
  8
2
370
    50
100
AcDbLine
 10
-79.616478
 20
93.677329
 30
0.0
 11
-76.583157
 21
95.42861700000001
 31
0.0
  0
LINE
  5
20D
330
22
100
AcDbEntity
  8
2
370
    50
100
AcDbLine
 10
-65.616478
 20
95.42861700000001
 30
0.0
 11
-62.58315699999999
 21
93.677329
 31
0.0
  0
CIRCLE
  5
20E
330
22
100
AcDbEntity
  8
2
370
    50
100
AcDbCircle
 10
-71.099817
 20
82.428617
 30
0.0
 40
6.0
  0
ARC
  5
219
330
22
100
AcDbEntity
  8
2
370
    50
100
AcDbCircle
 10
-67.580527
 20
-4.571382999999999
 30
0.0
 40
100.0
100
AcDbArc
 50
95.64926899999999
 51
102.896456
  0
ARC
  5
21A
330
22
100
AcDbEntity
  8
2
370
    50
100
AcDbCircle
 10
-67.580527
 20
-4.571382999999999
 30
0.0
 40
100.0
100
AcDbArc
 50
83.64437999999999
 51
88.854783
  0
ARC
  5
21B
330
22
100
AcDbEntity
  8
2
370
    50
100
AcDbCircle
 10
-67.580527
 20
169.428617
 30
0.0
 40
100.0
100
AcDbArc
 50
271.145217
 51
276.35562
  0
ARC
  5
21C
330
22
100
AcDbEntity
  8
2
370
    50
100
AcDbCircle
 10
-67.580527
 20
169.428617
 30
0.0
 40
100.0
100
AcDbArc
 50
257.103544
 51
264.350731
  0
LINE
  5
21D
330
22
100
AcDbEntity
  8
2
370
    50
100
AcDbLine
 10
-72.099817
 20
87.072161
 30
0.0
 11
-72.099817
 21
77.78507399999999
 31
0.0
  0
LINE
  5
21E
330
22
100
AcDbEntity
  8
2
370
    50
100
AcDbLine
 10
-70.099817
 20
87.072161
 30
0.0
 11
-70.099817
 21
77.78507399999999
 31
0.0
  0
TEXT
  5
21F
330
22
100
AcDbEntity
  8
2
370
    50
100
AcDbText
 10
-42.348585
 20
56.81655500000001
 30
0.0
 40
3.5
  1
ＨＥＸ２６
 41
0.8571428571428571
 72
     5
 11
-25.548585
 21
56.81655500000001
 31
0.0
100
AcDbText
  0
LWPOLYLINE
  5
220
330
22
100
AcDbEntity
  8
2
370
    25
100
AcDbPolyline
 90
        3
 70
     0
 43
0.0
 10
-41.224989
 20
69.428617
 10
-44.034086
 20
55.974056
 10
-24.557459
 20
55.974056
  0
LINE
  5
225
330
22
100
AcDbEntity
  8
2
370
    50
100
AcDbLine
 10
-64.099692
 20
-28.94546
 30
0.0
 11
-64.099692
 21
-31.94546
 31
0.0
  0
LINE
  5
226
330
22
100
AcDbEntity
  8
2
370
    50
100
AcDbLine
 10
-63.09969200000001
 20
-30.44546
 30
0.0
 11
-64.099692
 21
-30.44546
 31
0.0
  0
DIMENSION
  5
22F
330
22
100
AcDbEntity
  8
2
370
    25
100
AcDbDimension
280
     0
  2
*D1
 10
-9.251482000000001
 20
-44.345234
 30
0.0
 11
-15.751482
 21
-52.345234
 31
0.0
 70
     1
 71
     0
 72
     0
 41
0.0
 42
0.0
 73
     0
 74
     0
 75
     0
  3
Standard
100
AcDbAlignedDimension
 13
-9.251482000000001
 23
-42.19523399999999
 33
0.0
 14
-9.251482000000001
 24
-44.345234
 34
0.0
  0
TEXT
  5
230
330
22
100
AcDbEntity
  8
2
370
    50
100
AcDbText
 10
-52.94439
 20
-57.215304
 30
0.0
 40
2.0
  1
+
 50
284.7759627069103
 41
0.8999995619248903
 72
     5
 11
-52.638342
 21
-58.37562
 31
0.0
100
AcDbText
  0
TEXT
  5
231
330
22
100
AcDbEntity
  8
2
370
    50
100
AcDbText
 10
-54.878251
 20
-57.725384
 30
0.0
 40
2.0
  1
-0
 50
284.7759408276051
 41
1.0666663847634
 72
     5
 11
-54.062124
 21
-60.819561
 31
0.0
100
AcDbText
  0
DIMENSION
  5
232
330
22
100
AcDbEntity
  8
2
370
    25
100
AcDbDimension
280
     0
  2
*D2
 10
-58.46608199999999
 20
-46.823034
 30
0.0
 11
-56.408491
 21
-48.056078
 31
0.0
 70
     1
 71
     0
 72
     0
 41
0.0
 42
0.0
 73
     0
 74
     0
 75
     0
  3
Standard
100
AcDbAlignedDimension
 13
-58.985114
 23
-44.374434
 33
0.0
 14
-58.347515
 24
-46.791761
 34
0.0
  0
TEXT
  5
233
330
22
100
AcDbEntity
  8
2
370
    50
100
AcDbText
 10
-53.402002
 20
-58.79687099999999
 30
0.0
 40
3.5
  1
∞
 50
291.9999896544583
 41
0.9230769294130125
 72
     5
 11
-52.35310399999999
 21
-61.392986
 31
0.0
100
AcDbText
  0
LINE
  5
234
330
22
100
AcDbEntity
  8
2
370
    25
100
AcDbLine
 10
-66.59950999999999
 20
-35.445234
 30
0.0
 11
-75.59950999999999
 21
-35.445234
 31
0.0
  0
TEXT
  5
235
330
22
100
AcDbEntity
  8
2
370
    50
100
AcDbText
 10
-27.68191
 20
-67.35873199999999
 30
0.0
 40
4.0
  1
Ｒｃ１／２
 41
0.8571428571428569
 72
     5
 11
-8.48191
 21
-67.35873199999999
 31
0.0
100
AcDbText
  0
LINE
  5
236
330
22
100
AcDbEntity
  8
2
370
    50
100
AcDbLine
 10
35.476509
 20
-23.545234
 30
0.0
 11
35.476509
 21
-3.945233999999999
 31
0.0
  0
LINE
  5
237
330
22
100
AcDbEntity
  8
2
370
    50
100
AcDbLine
 10
35.476509
 20
-63.945234
 30
0.0
 11
35.476509
 21
-44.345234
 31
0.0
  0
LINE
  5
238
330
22
100
AcDbEntity
  8
2
370
    50
100
AcDbLine
 10
35.476509
 20
52.42861699999999
 30
0.0
 11
35.476509
 21
112.428617
 31
0.0
  0
DIMENSION
  5
239
330
22
100
AcDbEntity
  8
2
370
    25
100
AcDbDimension
280
     0
  2
*D3
 10
35.476509
 20
1.628471
 30
0.0
 11
26.97650900000001
 21
3.878470999999999
 31
0.0
 71
     0
 72
     0
 41
0.0
 42
0.0
 73
     0
 74
     0
 75
     0
  3
Standard
100
AcDbAlignedDimension
 13
18.476509
 23
-11.945234
 33
0.0
 14
35.476509
 24
-3.945233999999999
 34
0.0
100
AcDbRotatedDimension
  0
DIMENSION
  5
23A
330
22
100
AcDbEntity
  8
2
370
    25
100
AcDbDimension
280
     0
  2
*D4
 10
70.64694799999999
 20
-63.945234
 30
0.0
 11
64.89694799999999
 21
-35.695234
 31
0.0
 70
     1
 71
     0
 72
     0
 41
0.0
 42
0.0
 73
     0
 74
     0
 75
     0
  3
Standard
100
AcDbAlignedDimension
 13
35.476509
 23
-3.945233999999999
 33
0.0
 14
35.476509
 24
-63.945234
 34
0.0
  0
TEXT
  5
23B
330
22
100
AcDbEntity
  8
2
370
    50
100
AcDbText
 10
63.20548299999999
 20
10.732065
 30
0.0
 40
4.0
  1
Ｒ１／２
 41
0.8636363636363631
 72
     5
 11
78.40548299999999
 21
10.732065
 31
0.0
100
AcDbText
  0
TEXT
  5
23C
330
22
100
AcDbEntity
  8
2
370
    50
100
AcDbText
 10
-33.126009
 20
-72.09766000000001
 30
0.0
 40
3.5
  1
（給水管Ｒ１／２）
 41
0.8800000000000006
 72
     5
 11
-2.326008999999999
 21
-72.09766000000001
 31
0.0
100
AcDbText
  0
LINE
  5
23D
330
22
100
AcDbEntity
  8
2
  6
CENTER
370
    25
100
AcDbLine
 10
-71.09950999999999
 20
-57.54458
 30
0.0
 11
-71.09950999999999
 21
19.096622
 31
0.0
  0
LINE
  5
23E
330
22
100
AcDbEntity
  8
2
  6
CENTER
370
    25
100
AcDbLine
 10
-71.09950999999999
 20
63.655155
 30
0.0
 11
-71.09950999999999
 21
100.215199
 31
0.0
  0
POINT
  5
23F
330
22
100
AcDbEntity
  8
2
370
    50
100
AcDbPoint
 10
-81.15690800000001
 20
68.812761
 30
0.0
  0
POINT
  5
240
330
22
100
AcDbEntity
  8
2
370
    50
100
AcDbPoint
 10
18.476509
 20
82.428617
 30
0.0
  0
LINE
  5
241
330
22
100
AcDbEntity
  8
2
  6
CENTER
370
    25
100
AcDbLine
 10
-111.398734
 20
82.428617
 30
0.0
 11
57.151543
 21
82.428617
 31
0.0
  0
LINE
  5
242
330
22
100
AcDbEntity
  8
2
370
    25
100
AcDbLine
 10
-101.398734
 20
91.706117
 30
0.0
 11
-91.09951
 21
91.706117
 31
0.0
  0
LINE
  5
243
330
22
100
AcDbEntity
  8
2
370
    25
100
AcDbLine
 10
-101.398734
 20
73.151117
 30
0.0
 11
-91.09951
 21
73.151117
 31
0.0
  0
LINE
  5
244
330
22
100
AcDbEntity
  8
2
370
    50
100
AcDbLine
 10
-91.09951
 20
91.706117
 30
0.0
 11
-89.89950999999999
 21
92.90611700000001
 31
0.0
  0
LINE
  5
245
330
22
100
AcDbEntity
  8
2
370
    50
100
AcDbLine
 10
-91.09951
 20
73.151117
 30
0.0
 11
-89.89950999999999
 21
71.95111700000001
 31
0.0
  0
LINE
  5
246
330
22
100
AcDbEntity
  8
2
370
    50
100
AcDbLine
 10
-100.198734
 20
92.90611700000001
 30
0.0
 11
-89.89950999999999
 21
92.90611700000001
 31
0.0
  0
LINE
  5
247
330
22
100
AcDbEntity
  8
2
370
    50
100
AcDbLine
 10
-100.198734
 20
71.95111700000001
 30
0.0
 11
-89.89950999999999
 21
71.95111700000001
 31
0.0
  0
LINE
  5
248
330
22
100
AcDbEntity
  8
2
370
    25
100
AcDbLine
 10
-91.09951
 20
92.90611700000001
 30
0.0
 11
-91.09951
 21
71.95111700000001
 31
0.0
  0
LINE
  5
249
330
22
100
AcDbEntity
  8
2
370
    50
100
AcDbLine
 10
-101.398734
 20
73.151117
 30
0.0
 11
-101.398734
 21
91.706117
 31
0.0
  0
LINE
  5
24A
330
22
100
AcDbEntity
  8
2
370
    50
100
AcDbLine
 10
-101.398734
 20
91.706117
 30
0.0
 11
-100.198734
 21
92.90611700000001
 31
0.0
  0
LINE
  5
24B
330
22
100
AcDbEntity
  8
2
370
    50
100
AcDbLine
 10
-101.398734
 20
73.151117
 30
0.0
 11
-100.198734
 21
71.95111700000001
 31
0.0
  0
LINE
  5
24C
330
22
100
AcDbEntity
  8
2
370
    50
100
AcDbLine
 10
-100.198734
 20
-23.467734
 30
0.0
 11
-89.09950999999999
 21
-23.467734
 31
0.0
  0
LINE
  5
24D
330
22
100
AcDbEntity
  8
2
370
    50
100
AcDbLine
 10
-100.198734
 20
-44.422734
 30
0.0
 11
-89.89950999999999
 21
-44.422734
 31
0.0
  0
LINE
  5
24E
330
22
100
AcDbEntity
  8
2
370
    50
100
AcDbLine
 10
-101.398734
 20
-27.445234
 30
0.0
 11
-88.09950999999999
 21
-27.445234
 31
0.0
  0
LINE
  5
24F
330
22
100
AcDbEntity
  8
2
370
    50
100
AcDbLine
 10
-101.398734
 20
-40.445234
 30
0.0
 11
-88.09950999999999
 21
-40.445234
 31
0.0
  0
LINE
  5
250
330
22
100
AcDbEntity
  8
2
370
    25
100
AcDbLine
 10
-101.398734
 20
-24.667734
 30
0.0
 11
-91.09951
 21
-24.667734
 31
0.0
  0
LINE
  5
251
330
22
100
AcDbEntity
  8
2
370
    25
100
AcDbLine
 10
-101.398734
 20
-43.222734
 30
0.0
 11
-91.09951
 21
-43.222734
 31
0.0
  0
LINE
  5
252
330
22
100
AcDbEntity
  8
2
370
    50
100
AcDbLine
 10
-91.09951
 20
-24.667734
 30
0.0
 11
-89.89950999999999
 21
-23.467734
 31
0.0
  0
LINE
  5
253
330
22
100
AcDbEntity
  8
2
370
    50
100
AcDbLine
 10
-91.09951
 20
-43.222734
 30
0.0
 11
-89.31191099999999
 21
-45.010333
 31
0.0
  0
LWPOLYLINE
  5
254
330
22
100
AcDbEntity
  8
2
370
    25
100
AcDbPolyline
 90
        3
 70
     0
 43
0.0
 10
-98.15238499999999
 20
-23.467734
 10
-125.047718
 20
16.367477
 10
-150.948013
 20
16.367477
  0
LINE
  5
259
330
22
100
AcDbEntity
  8
2
370
    25
100
AcDbLine
 10
-99.23338499999999
 20
-21.866644
 30
0.0
 11
-99.66239600000001
 21
-22.156297
 31
0.0
  0
LINE
  5
25A
330
22
100
AcDbEntity
  8
2
370
    25
100
AcDbLine
 10
-99.66239600000001
 20
-22.156297
 30
0.0
 11
-98.15238499999999
 21
-23.467734
 31
0.0
  0
LINE
  5
25B
330
22
100
AcDbEntity
  8
2
370
    25
100
AcDbLine
 10
-98.15238499999999
 20
-23.467734
 30
0.0
 11
-98.80437399999999
 21
-21.576991
 31
0.0
  0
LINE
  5
25C
330
22
100
AcDbEntity
  8
2
370
    25
100
AcDbLine
 10
-98.80437399999999
 20
-21.576991
 30
0.0
 11
-99.23338499999999
 21
-21.866644
 31
0.0
  0
LINE
  5
25D
330
22
100
AcDbEntity
  8
2
370
    50
100
AcDbLine
 10
-101.398734
 20
-43.222734
 30
0.0
 11
-101.398734
 21
-24.667734
 31
0.0
  0
LINE
  5
25E
330
22
100
AcDbEntity
  8
2
370
    50
100
AcDbLine
 10
-101.398734
 20
-27.445234
 30
0.0
 11
-88.09950999999999
 21
-27.445234
 31
0.0
  0
LINE
  5
25F
330
22
100
AcDbEntity
  8
2
370
    50
100
AcDbLine
 10
-101.398734
 20
-24.667734
 30
0.0
 11
-100.198734
 21
-23.467734
 31
0.0
  0
LINE
  5
260
330
22
100
AcDbEntity
  8
2
370
    50
100
AcDbLine
 10
-101.398734
 20
-43.222734
 30
0.0
 11
-100.198734
 21
-44.422734
 31
0.0
  0
TEXT
  5
261
330
22
100
AcDbEntity
  8
2
370
    50
100
AcDbText
 10
-149.1302639999999
 20
17.856298
 30
0.0
 40
4.0
  1
ＰＪ１／２
 41
0.8571428571428565
 72
     5
 11
-129.930264
 21
17.856298
 31
0.0
100
AcDbText
  0
LWPOLYLINE
  5
262
330
22
100
AcDbEntity
  8
2
370
    25
100
AcDbPolyline
 90
        3
 70
     0
 43
0.0
 10
-98.15238499999999
 20
-23.467734
 10
-125.047718
 20
16.367477
 10
-150.948013
 20
16.367477
  0
LINE
  5
267
330
22
100
AcDbEntity
  8
2
370
    25
100
AcDbLine
 10
-99.23338499999999
 20
-21.866644
 30
0.0
 11
-99.66239600000001
 21
-22.156297
 31
0.0
  0
LINE
  5
268
330
22
100
AcDbEntity
  8
2
370
    25
100
AcDbLine
 10
-99.66239600000001
 20
-22.156297
 30
0.0
 11
-98.15238499999999
 21
-23.467734
 31
0.0
  0
LINE
  5
269
330
22
100
AcDbEntity
  8
2
370
    25
100
AcDbLine
 10
-98.15238499999999
 20
-23.467734
 30
0.0
 11
-98.80437399999999
 21
-21.576991
 31
0.0
  0
LINE
  5
26A
330
22
100
AcDbEntity
  8
2
370
    25
100
AcDbLine
 10
-98.80437399999999
 20
-21.576991
 30
0.0
 11
-99.23338499999999
 21
-21.866644
 31
0.0
  0
TEXT
  5
26B
330
22
100
AcDbEntity
  8
2
370
    50
100
AcDbText
 10
-152.984808
 20
11.397648
 30
0.0
 40
4.0
  1
（給水栓ネジ）
 41
0.8947368421052633
 72
     5
 11
-125.784808
 21
11.397648
 31
0.0
100
AcDbText
  0
TEXT
  5
26F
330
22
100
AcDbEntity
  8
2
370
    50
100
AcDbText
 10
-23.801009
 20
13.978788
 30
0.0
 40
4.0
  1
L=420､450､500
 41
1.152439024390244
 72
     5
 11
26.598991
 21
13.978788
 31
0.0
100
AcDbText
  0
DIMENSION
  5
270
330
22
100
AcDbEntity
  8
2
370
    25
100
AcDbDimension
280
     0
  2
*D5
 10
51.28089899999999
 20
13.478788
 30
0.0
 11
2.198990999999999
 21
15.478788
 31
0.0
 70
     1
 71
     0
 72
     0
 41
0.0
 42
0.0
 73
     0
 74
     0
 75
     0
  3
Standard
100
AcDbAlignedDimension
 13
-46.88291599999999
 23
-24.982216
 33
0.0
 14
51.28089899999999
 24
-24.982216
 34
0.0
  0
POINT
  5
271
330
22
100
AcDbEntity
  8
2
370
    50
100
AcDbPoint
 10
-71.09950999999999
 20
8.554539999999999
 30
0.0
  0
ENDSEC
  0
SECTION
  2
OBJECTS
  0
DICTIONARY
  5
3C2
330
0
100
AcDbDictionary
281
     1
  3
ACAD_CIP_PREVIOUS_PRODUCT_INFO
350
427
  3
ACAD_COLOR
350
3CE
  3
ACAD_DETAILVIEWSTYLE
350
421
  3
ACAD_GROUP
350
3C3
  3
ACAD_LAYOUT
350
3CF
  3
ACAD_MATERIAL
350
3CD
  3
ACAD_MLEADERSTYLE
350
41C
  3
ACAD_MLINESTYLE
350
3C4
  3
ACAD_PLOTSETTINGS
350
3D0
  3
ACAD_PLOTSTYLENAME
350
3CB
  3
ACAD_SCALELIST
350
40A
  3
ACAD_SECTIONVIEWSTYLE
350
41E
  3
ACAD_TABLESTYLE
350
408
  3
ACAD_VISUALSTYLE
350
3EF
  3
ACDB_RECOMPOSE_DATA
350
4BC
  3
AcDbVariableDictionary
350
4B0
  3
AcmDictionary
350
452
  3
AMG
350
429
  3
AMGSNAPSETTINGS
350
490
  0
DICTIONARY
  5
49E
330
15
100
AcDbDictionary
280
     1
281
     1
  3
ADSK_XREC_LAYER_RECONCILED
360
49F
  0
DICTIONARY
  5
4A0
330
16
100
AcDbDictionary
280
     1
281
     1
  3
ADSK_XREC_LAYER_RECONCILED
360
4A1
  0
DICTIONARY
  5
4A2
330
17
100
AcDbDictionary
280
     1
281
     1
  3
ADSK_XREC_LAYER_RECONCILED
360
4A3
  0
DICTIONARY
  5
4A4
330
18
100
AcDbDictionary
280
     1
281
     1
  3
ADSK_XREC_LAYER_RECONCILED
360
4A5
  0
XRECORD
  5
427
102
{ACAD_REACTORS
330
3C2
102
}
330
3C2
100
AcDbXrecord
280
     1
300
AMECH_PP
300
2013
300
PDSU_F_S_TL
  0
DICTIONARY
  5
3CE
102
{ACAD_REACTORS
330
3C2
102
}
330
3C2
100
AcDbDictionary
281
     1
  0
DICTIONARY
  5
421
102
{ACAD_REACTORS
330
3C2
102
}
330
3C2
100
AcDbDictionary
281
     1
  3
Imperial24
350
422
  0
DICTIONARY
  5
3C3
102
{ACAD_REACTORS
330
3C2
102
}
330
3C2
100
AcDbDictionary
281
     1
  0
DICTIONARY
  5
3CF
102
{ACAD_REACTORS
330
3C2
102
}
330
3C2
100
AcDbDictionary
281
     1
  3
Model
350
3D1
  3
レイアウト1
350
3D2
  0
DICTIONARY
  5
3CD
102
{ACAD_REACTORS
330
3C2
102
}
330
3C2
100
AcDbDictionary
281
     1
  3
ByBlock
350
3DF
  3
ByLayer
350
3D7
  3
Global
350
3E7
  0
DICTIONARY
  5
41C
102
{ACAD_REACTORS
330
3C2
102
}
330
3C2
100
AcDbDictionary
281
     1
  3
Standard
350
41D
  0
DICTIONARY
  5
3C4
102
{ACAD_REACTORS
330
3C2
102
}
330
3C2
100
AcDbDictionary
281
     1
  3
Standard
350
3C5
  0
DICTIONARY
  5
3D0
102
{ACAD_REACTORS
330
3C2
102
}
330
3C2
100
AcDbDictionary
281
     1
  0
ACDBDICTIONARYWDFLT
  5
3CB
102
{ACAD_REACTORS
330
3C2
102
}
330
3C2
100
AcDbDictionary
281
     1
  3
Normal
350
3CC
100
AcDbDictionaryWithDefault
340
3CC
  0
DICTIONARY
  5
40A
102
{ACAD_REACTORS
330
3C2
102
}
330
3C2
100
AcDbDictionary
281
     1
  3
A0
350
40B
  3
A1
350
40C
  3
A2
350
40D
  3
A3
350
40E
  3
A4
350
40F
  3
A5
350
410
  3
A6
350
411
  3
A7
350
412
  3
A8
350
413
  3
A9
350
414
  3
B0
350
415
  3
B1
350
416
  3
B2
350
417
  3
B3
350
418
  3
B4
350
419
  3
B5
350
41A
  3
B6
350
41B
  0
DICTIONARY
  5
41E
102
{ACAD_REACTORS
330
3C2
102
}
330
3C2
100
AcDbDictionary
281
     1
  3
Imperial24
350
420
  0
DICTIONARY
  5
408
102
{ACAD_REACTORS
330
3C2
102
}
330
3C2
100
AcDbDictionary
281
     1
  3
Standard
350
409
  0
DICTIONARY
  5
3EF
102
{ACAD_REACTORS
330
3C2
102
}
330
3C2
100
AcDbDictionary
281
     1
  3
2dWireframe
350
3F5
  3
Basic
350
3F4
  3
Brighten
350
3FB
  3
ColorChange
350
3FF
  3
Conceptual
350
3F8
  3
Dim
350
3FA
  3
EdgeColorOff
350
407
  3
Facepattern
350
3FE
  3
Flat
350
3F0
  3
FlatWithEdges
350
3F1
  3
Gouraud
350
3F2
  3
GouraudWithEdges
350
3F3
  3
Hidden
350
3F7
  3
JitterOff
350
405
  3
Linepattern
350
3FD
  3
OverhangOff
350
406
  3
Realistic
350
3F9
  3
Shaded
350
404
  3
Shaded with edges
350
403
  3
Shades of Gray
350
400
  3
Sketchy
350
401
  3
Thicken
350
3FC
  3
Wireframe
350
3F6
  3
X-Ray
350
402
  0
XRECORD
  5
4BC
102
{ACAD_REACTORS
330
3C2
102
}
330
3C2
100
AcDbXrecord
280
     1
 90
        1
330
409
  0
DICTIONARY
  5
4B0
102
{ACAD_REACTORS
330
3C2
102
}
330
3C2
100
AcDbDictionary
281
     1
  3
CANNOSCALE
350
4B6
  3
CMLEADERSTYLE
350
4B2
  3
CTABLESTYLE
350
4B1
  3
CVIEWDETAILSTYLE
350
4B3
  3
CVIEWSECTIONSTYLE
350
4B4
  3
LAYEREVAL
350
4B8
  3
LAYERNOTIFY
350
4B9
  3
LIGHTINGUNITS
350
4B7
  3
MSLTSCALE
350
4B5
  0
DICTIONARY
  5
452
102
{ACAD_REACTORS
330
3C2
102
}
330
3C2
100
AcDbDictionary
281
     1
  3
AcmStdDictionary
350
459
  0
DICTIONARY
  5
429
102
{ACAD_REACTORS
330
3C2
102
}
330
3C2
100
AcDbDictionary
281
     1
  0
DICTIONARY
  5
490
102
{ACAD_REACTORS
330
3C2
102
}
330
3C2
100
AcDbDictionary
281
     1
  0
XRECORD
  5
49F
102
{ACAD_REACTORS
330
49E
102
}
330
49E
100
AcDbXrecord
280
     1
290
     1
  0
XRECORD
  5
4A1
102
{ACAD_REACTORS
330
4A0
102
}
330
4A0
100
AcDbXrecord
280
     1
290
     1
  0
XRECORD
  5
4A3
102
{ACAD_REACTORS
330
4A2
102
}
330
4A2
100
AcDbXrecord
280
     1
290
     1
  0
XRECORD
  5
4A5
102
{ACAD_REACTORS
330
4A4
102
}
330
4A4
100
AcDbXrecord
280
     1
290
     1
  0
ACDBDETAILVIEWSTYLE
  5
422
102
{ACAD_REACTORS
330
421
102
}
330
421
100
AcDbModelDocViewStyle
 70
     0
  3
Imperial24
290
     0
100
AcDbDetailViewStyle
 70
     0
 71
     0
 90
        3
 71
     1
340
1B
 62
   256
 40
0.24
340
0
 62
   256
 40
0.24
300

 40
0.36
280
     3
 71
     2
340
E
 90
       25
 62
   256
 71
     3
340
1B
 62
   256
 40
0.24
 90
        1
 40
0.75
 90
        1
300
%<\AcVar ViewType \f "%tc1">% %<\AcVar ViewDetailId>%\PSCALE %<\AcVar ViewScale \f "%sn">%
 71
     4
340
E
 90
       25
 62
   256
340
E
 90
       25
 62
   256
280
     0
  0
LAYOUT
  5
3D1
102
{ACAD_REACTORS
330
3CF
102
}
330
3CF
100
AcDbPlotSettings
  1

  2
JPTKYPOFFI003 MPC3000
  4

  6

 40
0.0
 41
0.0
 42
0.0
 43
0.0
 44
0.0
 45
0.0
 46
0.0
 47
0.0
 48
0.0
 49
0.0
140
0.0
141
0.0
142
1.0
143
1.0
 70
  1712
 72
     0
 73
     0
 74
     0
  7

 75
     0
147
1.0
 76
     0
 77
     2
 78
   300
148
0.0
149
0.0
100
AcDbLayout
  1
Model
 70
     1
 71
     0
 10
0.0
 20
0.0
 11
12.0
 21
9.0
 12
0.0
 22
0.0
 32
0.0
 14
0.0
 24
0.0
 34
0.0
 15
0.0
 25
0.0
 35
0.0
146
0.0
 13
0.0
 23
0.0
 33
0.0
 16
1.0
 26
0.0
 36
0.0
 17
0.0
 27
1.0
 37
0.0
 76
     0
330
22
331
3D5
  0
LAYOUT
  5
3D2
102
{ACAD_REACTORS
330
3CF
102
}
330
3CF
100
AcDbPlotSettings
  1

  2
JPTKYPOFFI003 MPC3000
  4

  6

 40
0.0
 41
0.0
 42
0.0
 43
0.0
 44
0.0
 45
0.0
 46
0.0
 47
0.0
 48
0.0
 49
0.0
140
0.0
141
0.0
142
1.0
143
1.0
 70
   688
 72
     0
 73
     0
 74
     5
  7

 75
    16
147
1.0
 76
     0
 77
     2
 78
   300
148
0.0
149
0.0
100
AcDbLayout
  1
レイアウト1
 70
     0
 71
     1
 10
0.0
 20
0.0
 11
12.0
 21
9.0
 12
0.0
 22
0.0
 32
0.0
 14
1.000000000000000E+20
 24
1.000000000000000E+20
 34
1.000000000000000E+20
 15
-1.000000000000000E+20
 25
-1.000000000000000E+20
 35
-1.000000000000000E+20
146
0.0
 13
0.0
 23
0.0
 33
0.0
 16
1.0
 26
0.0
 36
0.0
 17
0.0
 27
1.0
 37
0.0
 76
     0
330
23
  0
MATERIAL
  5
3DF
102
{ACAD_XDICTIONARY
360
3E0
102
}
102
{ACAD_REACTORS
330
3CD
102
}
330
3CD
100
AcDbMaterial
  1
ByBlock
 72
     0
 43
0.0208333333333333
 43
0.0
 43
0.0
 43
0.0
 43
0.0
 43
0.0208333333333333
 43
0.0
 43
0.0
 43
0.0
 43
0.0
 43
1.0
 43
0.0
 43
0.0
 43
0.0
 43
0.0
 43
1.0
 77
     0
 47
0.0208333333333333
 47
0.0
 47
0.0
 47
0.0
 47
0.0
 47
0.0208333333333333
 47
0.0
 47
0.0
 47
0.0
 47
0.0
 47
1.0
 47
0.0
 47
0.0
 47
0.0
 47
0.0
 47
1.0
171
     0
 49
0.0208333333333333
 49
0.0
 49
0.0
 49
0.0
 49
0.0
 49
0.0208333333333333
 49
0.0
 49
0.0
 49
0.0
 49
0.0
 49
1.0
 49
0.0
 49
0.0
 49
0.0
 49
0.0
 49
1.0
175
     0
142
0.0208333333333333
142
0.0
142
0.0
142
0.0
142
0.0
142
0.0208333333333333
142
0.0
142
0.0
142
0.0
142
0.0
142
1.0
142
0.0
142
0.0
142
0.0
142
0.0
142
1.0
179
     0
144
0.0208333333333333
144
0.0
144
0.0
144
0.0
144
0.0
144
0.0208333333333333
144
0.0
144
0.0
144
0.0
144
0.0
144
1.0
144
0.0
144
0.0
144
0.0
144
0.0
144
1.0
147
0.0208333333333333
147
0.0
147
0.0
147
0.0
147
0.0
147
0.0208333333333333
147
0.0
147
0.0
147
0.0
147
0.0
147
1.0
147
0.0
147
0.0
147
0.0
147
0.0
147
1.0
  0
MATERIAL
  5
3D7
102
{ACAD_XDICTIONARY
360
3D8
102
}
102
{ACAD_REACTORS
330
3CD
102
}
330
3CD
100
AcDbMaterial
  1
ByLayer
 72
     0
 43
0.0208333333333333
 43
0.0
 43
0.0
 43
0.0
 43
0.0
 43
0.0208333333333333
 43
0.0
 43
0.0
 43
0.0
 43
0.0
 43
1.0
 43
0.0
 43
0.0
 43
0.0
 43
0.0
 43
1.0
 77
     0
 47
0.0208333333333333
 47
0.0
 47
0.0
 47
0.0
 47
0.0
 47
0.0208333333333333
 47
0.0
 47
0.0
 47
0.0
 47
0.0
 47
1.0
 47
0.0
 47
0.0
 47
0.0
 47
0.0
 47
1.0
171
     0
 49
0.0208333333333333
 49
0.0
 49
0.0
 49
0.0
 49
0.0
 49
0.0208333333333333
 49
0.0
 49
0.0
 49
0.0
 49
0.0
 49
1.0
 49
0.0
 49
0.0
 49
0.0
 49
0.0
 49
1.0
175
     0
142
0.0208333333333333
142
0.0
142
0.0
142
0.0
142
0.0
142
0.0208333333333333
142
0.0
142
0.0
142
0.0
142
0.0
142
1.0
142
0.0
142
0.0
142
0.0
142
0.0
142
1.0
179
     0
144
0.0208333333333333
144
0.0
144
0.0
144
0.0
144
0.0
144
0.0208333333333333
144
0.0
144
0.0
144
0.0
144
0.0
144
1.0
144
0.0
144
0.0
144
0.0
144
0.0
144
1.0
147
0.0208333333333333
147
0.0
147
0.0
147
0.0
147
0.0
147
0.0208333333333333
147
0.0
147
0.0
147
0.0
147
0.0
147
1.0
147
0.0
147
0.0
147
0.0
147
0.0
147
1.0
  0
MATERIAL
  5
3E7
102
{ACAD_XDICTIONARY
360
3E8
102
}
102
{ACAD_REACTORS
330
3CD
102
}
330
3CD
100
AcDbMaterial
  1
Global
 72
     0
 43
0.0208333333333333
 43
0.0
 43
0.0
 43
0.0
 43
0.0
 43
0.0208333333333333
 43
0.0
 43
0.0
 43
0.0
 43
0.0
 43
1.0
 43
0.0
 43
0.0
 43
0.0
 43
0.0
 43
1.0
 77
     0
 47
0.0208333333333333
 47
0.0
 47
0.0
 47
0.0
 47
0.0
 47
0.0208333333333333
 47
0.0
 47
0.0
 47
0.0
 47
0.0
 47
1.0
 47
0.0
 47
0.0
 47
0.0
 47
0.0
 47
1.0
171
     0
 49
0.0208333333333333
 49
0.0
 49
0.0
 49
0.0
 49
0.0
 49
0.0208333333333333
 49
0.0
 49
0.0
 49
0.0
 49
0.0
 49
1.0
 49
0.0
 49
0.0
 49
0.0
 49
0.0
 49
1.0
175
     0
142
0.0208333333333333
142
0.0
142
0.0
142
0.0
142
0.0
142
0.0208333333333333
142
0.0
142
0.0
142
0.0
142
0.0
142
1.0
142
0.0
142
0.0
142
0.0
142
0.0
142
1.0
179
     0
144
0.0208333333333333
144
0.0
144
0.0
144
0.0
144
0.0
144
0.0208333333333333
144
0.0
144
0.0
144
0.0
144
0.0
144
1.0
144
0.0
144
0.0
144
0.0
144
0.0
144
1.0
147
0.0208333333333333
147
0.0
147
0.0
147
0.0
147
0.0
147
0.0208333333333333
147
0.0
147
0.0
147
0.0
147
0.0
147
1.0
147
0.0
147
0.0
147
0.0
147
0.0
147
1.0
  0
MLEADERSTYLE
  5
41D
102
{ACAD_XDICTIONARY
360
4EE
102
}
102
{ACAD_REACTORS
330
41C
102
}
330
41C
100
AcDbMLeaderStyle
179
     2
170
     2
171
     1
172
     0
 90
        2
 40
0.0
 41
0.0
173
     1
 91
-1056964608
340
C
 92
       -2
290
     1
 42
0.09
291
     1
 43
0.36
  3
Standard
 44
0.18
300

342
1B
174
     1
178
     6
175
     1
176
     0
 93
-1056964608
 45
0.18
292
     0
297
     0
 46
0.18
 94
-1056964608
 47
1.0
 49
1.0
140
1.0
293
     1
141
0.0
294
     1
177
     0
142
1.0
295
     0
296
     0
143
0.125
271
     0
272
     9
273
     9
  0
MLINESTYLE
  5
3C5
102
{ACAD_REACTORS
330
3C4
102
}
330
3C4
100
AcDbMlineStyle
  2
STANDARD
 70
     0
  3

 62
     0
 51
90.0
 52
90.0
 71
     2
 49
0.5
 62
   256
  6
BYLAYER
 49
-0.5
 62
   256
  6
BYLAYER
  0
ACDBPLACEHOLDER
  5
3CC
102
{ACAD_REACTORS
330
3CB
102
}
330
3CB
  0
SCALE
  5
40B
102
{ACAD_REACTORS
330
40A
102
}
330
40A
100
AcDbScale
 70
     0
300
1:1
140
1.0
141
1.0
290
     1
  0
SCALE
  5
40C
102
{ACAD_REACTORS
330
40A
102
}
330
40A
100
AcDbScale
 70
     0
300
1/128" = 1'-0"
140
0.0078125
141
12.0
290
     0
  0
SCALE
  5
40D
102
{ACAD_REACTORS
330
40A
102
}
330
40A
100
AcDbScale
 70
     0
300
1/64" = 1'-0"
140
0.015625
141
12.0
290
     0
  0
SCALE
  5
40E
102
{ACAD_REACTORS
330
40A
102
}
330
40A
100
AcDbScale
 70
     0
300
1/32" = 1'-0"
140
0.03125
141
12.0
290
     0
  0
SCALE
  5
40F
102
{ACAD_REACTORS
330
40A
102
}
330
40A
100
AcDbScale
 70
     0
300
1/16" = 1'-0"
140
0.0625
141
12.0
290
     0
  0
SCALE
  5
410
102
{ACAD_REACTORS
330
40A
102
}
330
40A
100
AcDbScale
 70
     0
300
3/32" = 1'-0"
140
0.09375
141
12.0
290
     0
  0
SCALE
  5
411
102
{ACAD_REACTORS
330
40A
102
}
330
40A
100
AcDbScale
 70
     0
300
1/8" = 1'-0"
140
0.125
141
12.0
290
     0
  0
SCALE
  5
412
102
{ACAD_REACTORS
330
40A
102
}
330
40A
100
AcDbScale
 70
     0
300
3/16" = 1'-0"
140
0.1875
141
12.0
290
     0
  0
SCALE
  5
413
102
{ACAD_REACTORS
330
40A
102
}
330
40A
100
AcDbScale
 70
     0
300
1/4" = 1'-0"
140
0.25
141
12.0
290
     0
  0
SCALE
  5
414
102
{ACAD_REACTORS
330
40A
102
}
330
40A
100
AcDbScale
 70
     0
300
3/8" = 1'-0"
140
0.375
141
12.0
290
     0
  0
SCALE
  5
415
102
{ACAD_REACTORS
330
40A
102
}
330
40A
100
AcDbScale
 70
     0
300
1/2" = 1'-0"
140
0.5
141
12.0
290
     0
  0
SCALE
  5
416
102
{ACAD_REACTORS
330
40A
102
}
330
40A
100
AcDbScale
 70
     0
300
3/4" = 1'-0"
140
0.75
141
12.0
290
     0
  0
SCALE
  5
417
102
{ACAD_REACTORS
330
40A
102
}
330
40A
100
AcDbScale
 70
     0
300
1" = 1'-0"
140
1.0
141
12.0
290
     0
  0
SCALE
  5
418
102
{ACAD_REACTORS
330
40A
102
}
330
40A
100
AcDbScale
 70
     0
300
1-1/2" = 1'-0"
140
1.5
141
12.0
290
     0
  0
SCALE
  5
419
102
{ACAD_REACTORS
330
40A
102
}
330
40A
100
AcDbScale
 70
     0
300
3" = 1'-0"
140
3.0
141
12.0
290
     0
  0
SCALE
  5
41A
102
{ACAD_REACTORS
330
40A
102
}
330
40A
100
AcDbScale
 70
     0
300
6" = 1'-0"
140
6.0
141
12.0
290
     0
  0
SCALE
  5
41B
102
{ACAD_REACTORS
330
40A
102
}
330
40A
100
AcDbScale
 70
     0
300
1'-0" = 1'-0"
140
12.0
141
12.0
290
     0
  0
ACDBSECTIONVIEWSTYLE
  5
420
102
{ACAD_REACTORS
330
41E
102
}
330
41E
100
AcDbModelDocViewStyle
 70
     0
  3
Imperial24
290
     0
100
AcDbSectionViewStyle
 70
     0
 71
     0
 90
       78
 71
     1
340
1B
 62
   256
 40
0.24
340
0
340
0
 62
   256
 40
0.24
300
I, O, Q, S, X, Z
 40
0.48
 90
        3
 40
0.18
 90
        1
 71
     2
340
41F
 90
       25
 62
   256
340
E
 90
       50
 62
   256
 40
0.24
 40
0.0
 40
0.24
 71
     3
340
1B
 62
   256
 40
0.24
 90
        1
 40
0.75
 90
        1
300
%<\AcVar ViewType \f "%tc1">% %<\AcVar ViewSectionStartId>%-%<\AcVar ViewSectionEndId>%\PSCALE %<\AcVar ViewScale \f "%sn">%
 71
     4
 62
   256
 62
   257
300
ANSI31
 40
1.0
 90
        0
290
     0
290
     0
 90
        6
 40
0.0
 40
1.570796326794896
 40
0.2617993877991494
 40
1.308996938995747
 40
-0.2617993877991494
 40
1.832595714594046
  0
TABLESTYLE
  5
409
102
{ACAD_XDICTIONARY
360
4BA
102
}
102
{ACAD_REACTORS
330
408
102
}
330
408
100
AcDbTableStyle
280
     0
  3
Standard
 70
     0
 71
     0
 40
0.06
 41
0.06
280
     0
281
     0
  7
STANDARD
140
0.18
170
     2
 62
     0
 63
     7
283
     0
 90
      512
 91
        0
  1

274
    -2
284
     1
 64
     0
275
    -2
285
     1
 65
     0
276
    -2
286
     1
 66
     0
277
    -2
287
     1
 67
     0
278
    -2
288
     1
 68
     0
279
    -2
289
     1
 69
     0
  7
STANDARD
140
0.25
170
     5
 62
     0
 63
     7
283
     0
 90
      512
 91
        0
  1

274
    -2
284
     1
 64
     0
275
    -2
285
     1
 65
     0
276
    -2
286
     1
 66
     0
277
    -2
287
     1
 67
     0
278
    -2
288
     1
 68
     0
279
    -2
289
     1
 69
     0
  7
STANDARD
140
0.18
170
     5
 62
     0
 63
     7
283
     0
 90
      512
 91
        0
  1

274
    -2
284
     1
 64
     0
275
    -2
285
     1
 65
     0
276
    -2
286
     1
 66
     0
277
    -2
287
     1
 67
     0
278
    -2
288
     1
 68
     0
279
    -2
289
     1
 69
     0
  0
VISUALSTYLE
  5
3F5
102
{ACAD_XDICTIONARY
360
4C8
102
}
102
{ACAD_REACTORS
330
3EF
102
}
330
3EF
100
AcDbVisualStyle
  2
2dWireframe
 70
     4
177
     2
291
     0
 71
     0
176
     1
 72
     2
176
     1
 73
     0
176
     1
 90
        0
176
     1
 40
0.6
176
     1
 41
30.0
176
     1
 63
     7
421
 16777215
176
     1
 74
     1
176
     1
 91
        4
176
     1
 64
     7
176
     1
 65
   257
176
     1
 75
     1
176
     1
175
     1
176
     1
 42
1.0
176
     1
 92
        0
176
     1
 66
   257
176
     1
 43
1.0
176
     1
 76
     1
176
     1
 77
     6
176
     1
 78
     2
176
     1
 67
     7
176
     1
 79
     5
176
     1
170
     0
176
     1
171
     0
176
     1
290
     0
176
     1
 93
        1
176
     1
 44
0.0
176
     1
173
     0
176
     1
1001
ACAD
1000
AcDbSavedByObjectVersion
1070
     0
  0
VISUALSTYLE
  5
3F4
102
{ACAD_XDICTIONARY
360
4C6
102
}
102
{ACAD_REACTORS
330
3EF
102
}
330
3EF
100
AcDbVisualStyle
  2
Basic
 70
     7
177
     2
291
     1
 71
     1
176
     1
 72
     0
176
     1
 73
     1
176
     1
 90
        0
176
     1
 40
0.6
176
     1
 41
30.0
176
     1
 63
     7
421
 16777215
176
     1
 74
     0
176
     1
 91
        4
176
     1
 64
     7
176
     1
 65
   257
176
     1
 75
     1
176
     1
175
     1
176
     1
 42
1.0
176
     1
 92
        8
176
     1
 66
     7
176
     1
 43
1.0
176
     1
 76
     1
176
     1
 77
     6
176
     1
 78
     2
176
     1
 67
     7
176
     1
 79
     5
176
     1
170
     0
176
     1
171
     0
176
     1
290
     0
176
     1
 93
        1
176
     1
 44
0.0
176
     1
173
     0
176
     1
1001
ACAD
1000
AcDbSavedByObjectVersion
1070
     0
  0
VISUALSTYLE
  5
3FB
102
{ACAD_XDICTIONARY
360
4D4
102
}
102
{ACAD_REACTORS
330
3EF
102
}
330
3EF
100
AcDbVisualStyle
  2
Brighten
 70
    12
177
     2
291
     1
 71
     2
176
     1
 72
     2
176
     1
 73
     0
176
     1
 90
        0
176
     1
 40
0.6
176
     1
 41
30.0
176
     1
 63
     7
421
 16777215
176
     1
 74
     1
176
     1
 91
        4
176
     1
 64
     7
176
     1
 65
   257
176
     1
 75
     1
176
     1
175
     1
176
     1
 42
1.0
176
     1
 92
        8
176
     1
 66
     7
176
     1
 43
1.0
176
     1
 76
     1
176
     1
 77
     6
176
     1
 78
     2
176
     1
 67
     7
176
     1
 79
     5
176
     1
170
     0
176
     1
171
     0
176
     1
290
     0
176
     1
 93
        1
176
     1
 44
50.0
176
     1
173
     0
176
     1
1001
ACAD
1000
AcDbSavedByObjectVersion
1070
     0
  0
VISUALSTYLE
  5
3FF
102
{ACAD_XDICTIONARY
360
4DC
102
}
102
{ACAD_REACTORS
330
3EF
102
}
330
3EF
100
AcDbVisualStyle
  2
ColorChange
 70
    16
177
     2
291
     1
 71
     2
176
     1
 72
     2
176
     1
 73
     3
176
     1
 90
        0
176
     1
 40
0.6
176
     1
 41
30.0
176
     1
 63
     8
421
  8421504
176
     1
 74
     1
176
     1
 91
        4
176
     1
 64
     7
176
     1
 65
   257
176
     1
 75
     1
176
     1
175
     1
176
     1
 42
1.0
176
     1
 92
        8
176
     1
 66
     8
424
  8421504
176
     1
 43
1.0
176
     1
 76
     1
176
     1
 77
     6
176
     1
 78
     2
176
     1
 67
     7
176
     1
 79
     5
176
     1
170
     0
176
     1
171
     0
176
     1
290
     0
176
     1
 93
        1
176
     1
 44
0.0
176
     1
173
     0
176
     1
1001
ACAD
1000
AcDbSavedByObjectVersion
1070
     0
  0
VISUALSTYLE
  5
3F8
102
{ACAD_XDICTIONARY
360
4CE
102
}
102
{ACAD_REACTORS
330
3EF
102
}
330
3EF
100
AcDbVisualStyle
  2
Conceptual
 70
     9
177
     2
291
     0
 71
     3
176
     1
 72
     2
176
     1
 73
     0
176
     1
 90
        0
176
     1
 40
0.6
176
     1
 41
30.0
176
     1
 63
     7
421
 16777215
176
     1
 74
     2
176
     1
 91
        2
176
     1
 64
     7
176
     1
 65
   257
176
     1
 75
     1
176
     1
175
     1
176
     1
 42
179.0
176
     1
 92
        8
176
     1
 66
     7
176
     1
 43
1.0
176
     1
 76
     1
176
     1
 77
     6
176
     1
 78
     2
176
     1
 67
     7
176
     1
 79
     3
176
     1
170
     0
176
     1
171
     0
176
     1
290
     0
176
     1
 93
        1
176
     1
 44
0.0
176
     1
173
     0
176
     1
1001
ACAD
1000
AcDbSavedByObjectVersion
1070
     0
  0
VISUALSTYLE
  5
3FA
102
{ACAD_XDICTIONARY
360
4D2
102
}
102
{ACAD_REACTORS
330
3EF
102
}
330
3EF
100
AcDbVisualStyle
  2
Dim
 70
    11
177
     2
291
     1
 71
     2
176
     1
 72
     2
176
     1
 73
     0
176
     1
 90
        0
176
     1
 40
0.6
176
     1
 41
30.0
176
     1
 63
     7
421
 16777215
176
     1
 74
     1
176
     1
 91
        4
176
     1
 64
     7
176
     1
 65
   257
176
     1
 75
     1
176
     1
175
     1
176
     1
 42
1.0
176
     1
 92
        8
176
     1
 66
     7
176
     1
 43
1.0
176
     1
 76
     1
176
     1
 77
     6
176
     1
 78
     2
176
     1
 67
     7
176
     1
 79
     5
176
     1
170
     0
176
     1
171
     0
176
     1
290
     0
176
     1
 93
        1
176
     1
 44
-50.0
176
     1
173
     0
176
     1
1001
ACAD
1000
AcDbSavedByObjectVersion
1070
     0
  0
VISUALSTYLE
  5
407
102
{ACAD_XDICTIONARY
360
4EC
102
}
102
{ACAD_REACTORS
330
3EF
102
}
330
3EF
100
AcDbVisualStyle
  2
EdgeColorOff
 70
    22
177
     2
291
     1
 71
     2
176
     0
 72
     2
176
     0
 73
     0
176
     0
 90
        0
176
     0
 40
0.6
176
     0
 41
30.0
176
     0
 63
     7
421
 16777215
176
     0
 74
     1
176
     0
 91
        4
176
     0
 64
     7
176
     0
 65
   257
176
     0
 75
     1
176
     0
175
     1
176
     0
 42
1.0
176
     0
 92
        8
176
     2
 66
     7
176
     0
 43
1.0
176
     0
 76
     1
176
     0
 77
     6
176
     0
 78
     2
176
     0
 67
     7
176
     0
 79
     5
176
     0
170
     0
176
     0
171
     0
176
     0
290
     0
176
     0
 93
        1
176
     0
 44
0.0
176
     0
173
     0
176
     0
1001
ACAD
1000
AcDbSavedByObjectVersion
1070
     0
  0
VISUALSTYLE
  5
3FE
102
{ACAD_XDICTIONARY
360
4DA
102
}
102
{ACAD_REACTORS
330
3EF
102
}
330
3EF
100
AcDbVisualStyle
  2
Facepattern
 70
    15
177
     2
291
     1
 71
     2
176
     1
 72
     2
176
     1
 73
     0
176
     1
 90
        0
176
     1
 40
0.6
176
     1
 41
30.0
176
     1
 63
     7
421
 16777215
176
     1
 74
     1
176
     1
 91
        4
176
     1
 64
     7
176
     1
 65
   257
176
     1
 75
     1
176
     1
175
     1
176
     1
 42
1.0
176
     1
 92
        8
176
     1
 66
     7
176
     1
 43
1.0
176
     1
 76
     1
176
     1
 77
     6
176
     1
 78
     2
176
     1
 67
     7
176
     1
 79
     5
176
     1
170
     0
176
     1
171
     0
176
     1
290
     0
176
     1
 93
        1
176
     1
 44
0.0
176
     1
173
     0
176
     1
1001
ACAD
1000
AcDbSavedByObjectVersion
1070
     0
  0
VISUALSTYLE
  5
3F0
102
{ACAD_XDICTIONARY
360
4BE
102
}
102
{ACAD_REACTORS
330
3EF
102
}
330
3EF
100
AcDbVisualStyle
  2
Flat
 70
     0
177
     2
291
     1
 71
     2
176
     1
 72
     1
176
     1
 73
     1
176
     1
 90
        2
176
     1
 40
0.6
176
     1
 41
30.0
176
     1
 63
     7
421
 16777215
176
     1
 74
     0
176
     1
 91
        0
176
     1
 64
     7
176
     1
 65
   257
176
     1
 75
     1
176
     1
175
     1
176
     1
 42
1.0
176
     1
 92
        8
176
     1
 66
     7
176
     1
 43
1.0
176
     1
 76
     1
176
     1
 77
     6
176
     1
 78
     2
176
     1
 67
     7
176
     1
 79
     5
176
     1
170
     0
176
     1
171
     0
176
     1
290
     0
176
     1
 93
       13
176
     1
 44
0.0
176
     1
173
     0
176
     1
1001
ACAD
1000
AcDbSavedByObjectVersion
1070
     0
  0
VISUALSTYLE
  5
3F1
102
{ACAD_XDICTIONARY
360
4C0
102
}
102
{ACAD_REACTORS
330
3EF
102
}
330
3EF
100
AcDbVisualStyle
  2
FlatWithEdges
 70
     1
177
     2
291
     1
 71
     2
176
     1
 72
     1
176
     1
 73
     1
176
     1
 90
        2
176
     1
 40
0.6
176
     1
 41
30.0
176
     1
 63
     7
421
 16777215
176
     1
 74
     1
176
     1
 91
        0
176
     1
 64
     7
176
     1
 65
   257
176
     1
 75
     1
176
     1
175
     1
176
     1
 42
1.0
176
     1
 92
        0
176
     1
 66
   257
176
     1
 43
1.0
176
     1
 76
     1
176
     1
 77
     6
176
     1
 78
     2
176
     1
 67
     7
176
     1
 79
     5
176
     1
170
     0
176
     1
171
     0
176
     1
290
     0
176
     1
 93
       13
176
     1
 44
0.0
176
     1
173
     0
176
     1
1001
ACAD
1000
AcDbSavedByObjectVersion
1070
     0
  0
VISUALSTYLE
  5
3F2
102
{ACAD_XDICTIONARY
360
4C2
102
}
102
{ACAD_REACTORS
330
3EF
102
}
330
3EF
100
AcDbVisualStyle
  2
Gouraud
 70
     2
177
     2
291
     1
 71
     2
176
     1
 72
     2
176
     1
 73
     1
176
     1
 90
        2
176
     1
 40
0.6
176
     1
 41
30.0
176
     1
 63
     7
421
 16777215
176
     1
 74
     0
176
     1
 91
        0
176
     1
 64
     7
176
     1
 65
   257
176
     1
 75
     1
176
     1
175
     1
176
     1
 42
1.0
176
     1
 92
        0
176
     1
 66
     7
176
     1
 43
1.0
176
     1
 76
     1
176
     1
 77
     6
176
     1
 78
     2
176
     1
 67
     7
176
     1
 79
     5
176
     1
170
     0
176
     1
171
     0
176
     1
290
     0
176
     1
 93
       13
176
     1
 44
0.0
176
     1
173
     0
176
     1
1001
ACAD
1000
AcDbSavedByObjectVersion
1070
     0
  0
VISUALSTYLE
  5
3F3
102
{ACAD_XDICTIONARY
360
4C4
102
}
102
{ACAD_REACTORS
330
3EF
102
}
330
3EF
100
AcDbVisualStyle
  2
GouraudWithEdges
 70
     3
177
     2
291
     1
 71
     2
176
     1
 72
     2
176
     1
 73
     1
176
     1
 90
        2
176
     1
 40
0.6
176
     1
 41
30.0
176
     1
 63
     7
421
 16777215
176
     1
 74
     1
176
     1
 91
        0
176
     1
 64
     7
176
     1
 65
   257
176
     1
 75
     1
176
     1
175
     1
176
     1
 42
1.0
176
     1
 92
        0
176
     1
 66
   257
176
     1
 43
1.0
176
     1
 76
     1
176
     1
 77
     6
176
     1
 78
     2
176
     1
 67
     7
176
     1
 79
     5
176
     1
170
     0
176
     1
171
     0
176
     1
290
     0
176
     1
 93
       13
176
     1
 44
0.0
176
     1
173
     0
176
     1
1001
ACAD
1000
AcDbSavedByObjectVersion
1070
     0
  0
VISUALSTYLE
  5
3F7
102
{ACAD_XDICTIONARY
360
4CC
102
}
102
{ACAD_REACTORS
330
3EF
102
}
330
3EF
100
AcDbVisualStyle
  2
Hidden
 70
     6
177
     2
291
     0
 71
     1
176
     1
 72
     2
176
     1
 73
     2
176
     1
 90
        0
176
     1
 40
0.6
176
     1
 41
30.0
176
     1
 63
     7
421
 16777215
176
     1
 74
     2
176
     1
 91
        2
176
     1
 64
     7
176
     1
 65
   257
176
     1
 75
     2
176
     1
175
     1
176
     1
 42
40.0
176
     1
 92
        0
176
     1
 66
   257
176
     1
 43
1.0
176
     1
 76
     1
176
     1
 77
     6
176
     1
 78
     2
176
     1
 67
     7
176
     1
 79
     3
176
     1
170
     0
176
     1
171
     0
176
     1
290
     0
176
     1
 93
        1
176
     1
 44
0.0
176
     1
173
     0
176
     1
1001
ACAD
1000
AcDbSavedByObjectVersion
1070
     0
  0
VISUALSTYLE
  5
405
102
{ACAD_XDICTIONARY
360
4E8
102
}
102
{ACAD_REACTORS
330
3EF
102
}
330
3EF
100
AcDbVisualStyle
  2
JitterOff
 70
    20
177
     2
291
     1
 71
     2
176
     0
 72
     2
176
     0
 73
     0
176
     0
 90
        0
176
     0
 40
0.6
176
     0
 41
30.0
176
     0
 63
     7
421
 16777215
176
     0
 74
     1
176
     0
 91
        4
176
     0
 64
     7
176
     0
 65
   257
176
     0
 75
     1
176
     0
175
     1
176
     0
 42
1.0
176
     0
 92
       10
176
     2
 66
     7
176
     0
 43
1.0
176
     0
 76
     1
176
     0
 77
     6
176
     0
 78
     2
176
     0
 67
     7
176
     0
 79
     5
176
     0
170
     0
176
     0
171
     0
176
     0
290
     0
176
     0
 93
        1
176
     0
 44
0.0
176
     0
173
     0
176
     0
1001
ACAD
1000
AcDbSavedByObjectVersion
1070
     0
  0
VISUALSTYLE
  5
3FD
102
{ACAD_XDICTIONARY
360
4D8
102
}
102
{ACAD_REACTORS
330
3EF
102
}
330
3EF
100
AcDbVisualStyle
  2
Linepattern
 70
    14
177
     2
291
     1
 71
     2
176
     1
 72
     2
176
     1
 73
     0
176
     1
 90
        0
176
     1
 40
0.6
176
     1
 41
30.0
176
     1
 63
     7
421
 16777215
176
     1
 74
     1
176
     1
 91
        4
176
     1
 64
     7
176
     1
 65
   257
176
     1
 75
     7
176
     1
175
     7
176
     1
 42
1.0
176
     1
 92
        8
176
     1
 66
     7
176
     1
 43
1.0
176
     1
 76
     1
176
     1
 77
     6
176
     1
 78
     2
176
     1
 67
     7
176
     1
 79
     5
176
     1
170
     0
176
     1
171
     0
176
     1
290
     0
176
     1
 93
        1
176
     1
 44
0.0
176
     1
173
     0
176
     1
1001
ACAD
1000
AcDbSavedByObjectVersion
1070
     0
  0
VISUALSTYLE
  5
406
102
{ACAD_XDICTIONARY
360
4EA
102
}
102
{ACAD_REACTORS
330
3EF
102
}
330
3EF
100
AcDbVisualStyle
  2
OverhangOff
 70
    21
177
     2
291
     1
 71
     2
176
     0
 72
     2
176
     0
 73
     0
176
     0
 90
        0
176
     0
 40
0.6
176
     0
 41
30.0
176
     0
 63
     7
421
 16777215
176
     0
 74
     1
176
     0
 91
        4
176
     0
 64
     7
176
     0
 65
   257
176
     0
 75
     1
176
     0
175
     1
176
     0
 42
1.0
176
     0
 92
        9
176
     2
 66
     7
176
     0
 43
1.0
176
     0
 76
     1
176
     0
 77
     6
176
     0
 78
     2
176
     0
 67
     7
176
     0
 79
     5
176
     0
170
     0
176
     0
171
     0
176
     0
290
     0
176
     0
 93
        1
176
     0
 44
0.0
176
     0
173
     0
176
     0
1001
ACAD
1000
AcDbSavedByObjectVersion
1070
     0
  0
VISUALSTYLE
  5
3F9
102
{ACAD_XDICTIONARY
360
4D0
102
}
102
{ACAD_REACTORS
330
3EF
102
}
330
3EF
100
AcDbVisualStyle
  2
Realistic
 70
     8
177
     2
291
     0
 71
     2
176
     1
 72
     3
176
     1
 73
     0
176
     1
 90
        2
176
     1
 40
0.6
176
     1
 41
30.0
176
     1
 63
     7
421
 16777215
176
     1
 74
     0
176
     1
 91
        0
176
     1
 64
     7
176
     1
 65
   257
176
     1
 75
     1
176
     1
175
     1
176
     1
 42
1.0
176
     1
 92
        8
176
     1
 66
   257
176
     1
 43
1.0
176
     1
 76
     1
176
     1
 77
     6
176
     1
 78
     2
176
     1
 67
     7
176
     1
 79
     3
176
     1
170
     0
176
     1
171
     0
176
     1
290
     0
176
     1
 93
       13
176
     1
 44
0.0
176
     1
173
     0
176
     1
1001
ACAD
1000
AcDbSavedByObjectVersion
1070
     0
  0
VISUALSTYLE
  5
404
102
{ACAD_XDICTIONARY
360
4E6
102
}
102
{ACAD_REACTORS
330
3EF
102
}
330
3EF
100
AcDbVisualStyle
  2
Shaded
 70
    27
177
     2
291
     0
 71
     2
176
     1
 72
     2
176
     1
 73
     1
176
     1
 90
        2
176
     1
 40
0.6
176
     1
 41
30.0
176
     1
 63
     7
421
 16777215
176
     1
 74
     0
176
     1
 91
        4
176
     1
 64
     7
176
     1
 65
   257
176
     1
 75
     1
176
     1
175
     1
176
     1
 42
1.0
176
     1
 92
        8
176
     1
 66
   257
176
     1
 43
1.0
176
     1
 76
     1
176
     1
 77
     6
176
     1
 78
     2
176
     1
 67
     8
425
  7895160
176
     1
 79
     3
176
     1
170
     0
176
     1
171
     0
176
     1
290
     0
176
     1
 93
        5
176
     1
 44
0.0
176
     1
173
     0
176
     1
1001
ACAD
1000
AcDbSavedByObjectVersion
1070
     0
  0
VISUALSTYLE
  5
403
102
{ACAD_XDICTIONARY
360
4E4
102
}
102
{ACAD_REACTORS
330
3EF
102
}
330
3EF
100
AcDbVisualStyle
  2
Shaded with edges
 70
    26
177
     2
291
     0
 71
     2
176
     1
 72
     2
176
     1
 73
     1
176
     1
 90
        2
176
     1
 40
0.6
176
     1
 41
30.0
176
     1
 63
     7
421
 16777215
176
     1
 74
     1
176
     1
 91
       10
176
     1
 64
     7
176
     1
 65
   257
176
     1
 75
     2
176
     1
175
     1
176
     1
 42
1.0
176
     1
 92
        8
176
     1
 66
   257
176
     1
 43
1.0
176
     1
 76
     1
176
     1
 77
     6
176
     1
 78
     2
176
     1
 67
     7
176
     1
 79
     3
176
     1
170
     0
176
     1
171
     0
176
     1
290
     0
176
     1
 93
        5
176
     1
 44
0.0
176
     1
173
     0
176
     1
1001
ACAD
1000
AcDbSavedByObjectVersion
1070
     0
  0
VISUALSTYLE
  5
400
102
{ACAD_XDICTIONARY
360
4DE
102
}
102
{ACAD_REACTORS
330
3EF
102
}
330
3EF
100
AcDbVisualStyle
  2
Shades of Gray
 70
    23
177
     2
291
     0
 71
     2
176
     1
 72
     2
176
     1
 73
     3
176
     1
 90
        0
176
     1
 40
0.6
176
     1
 41
30.0
176
     1
 63
     7
421
 16777215
176
     1
 74
     2
176
     1
 91
        2
176
     1
 64
     7
176
     1
 65
     7
176
     1
 75
     1
176
     1
175
     1
176
     1
 42
40.0
176
     1
 92
        8
176
     1
 66
     7
176
     1
 43
1.0
176
     1
 76
     1
176
     1
 77
     6
176
     1
 78
     2
176
     1
 67
     7
176
     1
 79
     3
176
     1
170
     0
176
     1
171
     0
176
     1
290
     0
176
     1
 93
        1
176
     1
 44
0.0
176
     1
173
     0
176
     1
1001
ACAD
1000
AcDbSavedByObjectVersion
1070
     0
  0
VISUALSTYLE
  5
401
102
{ACAD_XDICTIONARY
360
4E0
102
}
102
{ACAD_REACTORS
330
3EF
102
}
330
3EF
100
AcDbVisualStyle
  2
Sketchy
 70
    24
177
     2
291
     0
 71
     1
176
     1
 72
     2
176
     1
 73
     2
176
     1
 90
        0
176
     1
 40
0.6
176
     1
 41
30.0
176
     1
 63
     7
421
 16777215
176
     1
 74
     2
176
     1
 91
        2
176
     1
 64
     7
176
     1
 65
     7
176
     1
 75
     1
176
     1
175
     1
176
     1
 42
40.0
176
     1
 92
       11
176
     1
 66
     7
176
     1
 43
1.0
176
     1
 76
     1
176
     1
 77
     6
176
     1
 78
     2
176
     1
 67
     7
176
     1
 79
     6
176
     1
170
     0
176
     1
171
     0
176
     1
290
     0
176
     1
 93
        1
176
     1
 44
0.0
176
     1
173
     0
176
     1
1001
ACAD
1000
AcDbSavedByObjectVersion
1070
     0
  0
VISUALSTYLE
  5
3FC
102
{ACAD_XDICTIONARY
360
4D6
102
}
102
{ACAD_REACTORS
330
3EF
102
}
330
3EF
100
AcDbVisualStyle
  2
Thicken
 70
    13
177
     2
291
     1
 71
     2
176
     1
 72
     2
176
     1
 73
     0
176
     1
 90
        0
176
     1
 40
0.6
176
     1
 41
30.0
176
     1
 63
     7
421
 16777215
176
     1
 74
     1
176
     1
 91
        4
176
     1
 64
     7
176
     1
 65
   257
176
     1
 75
     1
176
     1
175
     1
176
     1
 42
1.0
176
     1
 92
       12
176
     1
 66
     7
176
     1
 43
1.0
176
     1
 76
     1
176
     1
 77
     6
176
     1
 78
     2
176
     1
 67
     7
176
     1
 79
     5
176
     1
170
     0
176
     1
171
     0
176
     1
290
     0
176
     1
 93
        1
176
     1
 44
0.0
176
     1
173
     0
176
     1
1001
ACAD
1000
AcDbSavedByObjectVersion
1070
     0
  0
VISUALSTYLE
  5
3F6
102
{ACAD_XDICTIONARY
360
4CA
102
}
102
{ACAD_REACTORS
330
3EF
102
}
330
3EF
100
AcDbVisualStyle
  2
Wireframe
 70
     5
177
     2
291
     0
 71
     0
176
     1
 72
     2
176
     1
 73
     0
176
     1
 90
        0
176
     1
 40
0.6
176
     1
 41
30.0
176
     1
 63
     7
421
 16777215
176
     1
 74
     1
176
     1
 91
        4
176
     1
 64
     7
176
     1
 65
   257
176
     1
 75
     1
176
     1
175
     1
176
     1
 42
1.0
176
     1
 92
        0
176
     1
 66
   257
176
     1
 43
1.0
176
     1
 76
     1
176
     1
 77
     6
176
     1
 78
     2
176
     1
 67
     7
176
     1
 79
     3
176
     1
170
     0
176
     1
171
     0
176
     1
290
     0
176
     1
 93
        1
176
     1
 44
0.0
176
     1
173
     0
176
     1
1001
ACAD
1000
AcDbSavedByObjectVersion
1070
     0
  0
VISUALSTYLE
  5
402
102
{ACAD_XDICTIONARY
360
4E2
102
}
102
{ACAD_REACTORS
330
3EF
102
}
330
3EF
100
AcDbVisualStyle
  2
X-Ray
 70
    25
177
     2
291
     0
 71
     2
176
     1
 72
     2
176
     1
 73
     1
176
     1
 90
        1
176
     1
 40
0.5
176
     1
 41
30.0
176
     1
 63
     7
421
 16777215
176
     1
 74
     1
176
     1
 91
        0
176
     1
 64
     7
176
     1
 65
   257
176
     1
 75
     1
176
     1
175
     1
176
     1
 42
1.0
176
     1
 92
        8
176
     1
 66
     7
176
     1
 43
1.0
176
     1
 76
     1
176
     1
 77
     6
176
     1
 78
     2
176
     1
 67
     7
176
     1
 79
     3
176
     1
170
     0
176
     1
171
     0
176
     1
290
     0
176
     1
 93
       13
176
     1
 44
0.0
176
     1
173
     0
176
     1
1001
ACAD
1000
AcDbSavedByObjectVersion
1070
     0
  0
DICTIONARYVAR
  5
4B6
102
{ACAD_REACTORS
330
4B0
102
}
330
4B0
100
DictionaryVariables
280
     0
  1
1:1
  0
DICTIONARYVAR
  5
4B2
102
{ACAD_REACTORS
330
4B0
102
}
330
4B0
100
DictionaryVariables
280
     0
  1
STANDARD
  0
DICTIONARYVAR
  5
4B1
102
{ACAD_REACTORS
330
4B0
102
}
330
4B0
100
DictionaryVariables
280
     0
  1
STANDARD
  0
DICTIONARYVAR
  5
4B3
102
{ACAD_REACTORS
330
4B0
102
}
330
4B0
100
DictionaryVariables
280
     0
  1
Imperial24
  0
DICTIONARYVAR
  5
4B4
102
{ACAD_REACTORS
330
4B0
102
}
330
4B0
100
DictionaryVariables
280
     0
  1
Imperial24
  0
DICTIONARYVAR
  5
4B8
102
{ACAD_REACTORS
330
4B0
102
}
330
4B0
100
DictionaryVariables
280
     0
  1
1
  0
DICTIONARYVAR
  5
4B9
102
{ACAD_REACTORS
330
4B0
102
}
330
4B0
100
DictionaryVariables
280
     0
  1
15
  0
DICTIONARYVAR
  5
4B7
102
{ACAD_REACTORS
330
4B0
102
}
330
4B0
100
DictionaryVariables
280
     0
  1
0
  0
DICTIONARYVAR
  5
4B5
102
{ACAD_REACTORS
330
4B0
102
}
330
4B0
100
DictionaryVariables
280
     0
  1
0
  0
DICTIONARY
  5
459
102
{ACAD_REACTORS
330
452
102
}
330
452
100
AcDbDictionary
281
     1
  0
DICTIONARY
  5
3E0
330
3DF
100
AcDbDictionary
280
     1
281
     1
  3
BUMPTILE
360
3E2
  3
DIFFUSETILE
360
3E1
  3
OPACITYTILE
360
3E5
  3
REFLECTIONTILE
360
3E4
  3
REFRACTIONTILE
360
3E6
  3
SPECULARTILE
360
3E3
  0
DICTIONARY
  5
3D8
330
3D7
100
AcDbDictionary
280
     1
281
     1
  3
BUMPTILE
360
3DA
  3
DIFFUSETILE
360
3D9
  3
OPACITYTILE
360
3DD
  3
REFLECTIONTILE
360
3DC
  3
REFRACTIONTILE
360
3DE
  3
SPECULARTILE
360
3DB
  0
DICTIONARY
  5
3E8
330
3E7
100
AcDbDictionary
280
     1
281
     1
  3
BUMPTILE
360
3EA
  3
DIFFUSETILE
360
3E9
  3
OPACITYTILE
360
3ED
  3
REFLECTIONTILE
360
3EC
  3
REFRACTIONTILE
360
3EE
  3
SPECULARTILE
360
3EB
  0
DICTIONARY
  5
4EE
330
41D
100
AcDbDictionary
280
     1
281
     1
  3
ACAD_XREC_ROUNDTRIP
360
4EF
  0
DICTIONARY
  5
4BA
330
409
100
AcDbDictionary
280
     1
281
     1
  3
ACAD_ROUNDTRIP_2008_TABLESTYLE_CELLSTYLEMAP
360
4BB
  0
DICTIONARY
  5
4C8
330
3F5
100
AcDbDictionary
280
     1
281
     1
  3
ACAD_XREC_ROUNDTRIP
360
4C9
  0
DICTIONARY
  5
4C6
330
3F4
100
AcDbDictionary
280
     1
281
     1
  3
ACAD_XREC_ROUNDTRIP
360
4C7
  0
DICTIONARY
  5
4D4
330
3FB
100
AcDbDictionary
280
     1
281
     1
  3
ACAD_XREC_ROUNDTRIP
360
4D5
  0
DICTIONARY
  5
4DC
330
3FF
100
AcDbDictionary
280
     1
281
     1
  3
ACAD_XREC_ROUNDTRIP
360
4DD
  0
DICTIONARY
  5
4CE
330
3F8
100
AcDbDictionary
280
     1
281
     1
  3
ACAD_XREC_ROUNDTRIP
360
4CF
  0
DICTIONARY
  5
4D2
330
3FA
100
AcDbDictionary
280
     1
281
     1
  3
ACAD_XREC_ROUNDTRIP
360
4D3
  0
DICTIONARY
  5
4EC
330
407
100
AcDbDictionary
280
     1
281
     1
  3
ACAD_XREC_ROUNDTRIP
360
4ED
  0
DICTIONARY
  5
4DA
330
3FE
100
AcDbDictionary
280
     1
281
     1
  3
ACAD_XREC_ROUNDTRIP
360
4DB
  0
DICTIONARY
  5
4BE
330
3F0
100
AcDbDictionary
280
     1
281
     1
  3
ACAD_XREC_ROUNDTRIP
360
4BF
  0
DICTIONARY
  5
4C0
330
3F1
100
AcDbDictionary
280
     1
281
     1
  3
ACAD_XREC_ROUNDTRIP
360
4C1
  0
DICTIONARY
  5
4C2
330
3F2
100
AcDbDictionary
280
     1
281
     1
  3
ACAD_XREC_ROUNDTRIP
360
4C3
  0
DICTIONARY
  5
4C4
330
3F3
100
AcDbDictionary
280
     1
281
     1
  3
ACAD_XREC_ROUNDTRIP
360
4C5
  0
DICTIONARY
  5
4CC
330
3F7
100
AcDbDictionary
280
     1
281
     1
  3
ACAD_XREC_ROUNDTRIP
360
4CD
  0
DICTIONARY
  5
4E8
330
405
100
AcDbDictionary
280
     1
281
     1
  3
ACAD_XREC_ROUNDTRIP
360
4E9
  0
DICTIONARY
  5
4D8
330
3FD
100
AcDbDictionary
280
     1
281
     1
  3
ACAD_XREC_ROUNDTRIP
360
4D9
  0
DICTIONARY
  5
4EA
330
406
100
AcDbDictionary
280
     1
281
     1
  3
ACAD_XREC_ROUNDTRIP
360
4EB
  0
DICTIONARY
  5
4D0
330
3F9
100
AcDbDictionary
280
     1
281
     1
  3
ACAD_XREC_ROUNDTRIP
360
4D1
  0
DICTIONARY
  5
4E6
330
404
100
AcDbDictionary
280
     1
281
     1
  3
ACAD_XREC_ROUNDTRIP
360
4E7
  0
DICTIONARY
  5
4E4
330
403
100
AcDbDictionary
280
     1
281
     1
  3
ACAD_XREC_ROUNDTRIP
360
4E5
  0
DICTIONARY
  5
4DE
330
400
100
AcDbDictionary
280
     1
281
     1
  3
ACAD_XREC_ROUNDTRIP
360
4DF
  0
DICTIONARY
  5
4E0
330
401
100
AcDbDictionary
280
     1
281
     1
  3
ACAD_XREC_ROUNDTRIP
360
4E1
  0
DICTIONARY
  5
4D6
330
3FC
100
AcDbDictionary
280
     1
281
     1
  3
ACAD_XREC_ROUNDTRIP
360
4D7
  0
DICTIONARY
  5
4CA
330
3F6
100
AcDbDictionary
280
     1
281
     1
  3
ACAD_XREC_ROUNDTRIP
360
4CB
  0
DICTIONARY
  5
4E2
330
402
100
AcDbDictionary
280
     1
281
     1
  3
ACAD_XREC_ROUNDTRIP
360
4E3
  0
XRECORD
  5
3E2
102
{ACAD_REACTORS
330
3E0
102
}
330
3E0
100
AcDbXrecord
280
     1
270
     1
271
     1
  0
XRECORD
  5
3E1
102
{ACAD_REACTORS
330
3E0
102
}
330
3E0
100
AcDbXrecord
280
     1
270
     1
271
     1
  0
XRECORD
  5
3E5
102
{ACAD_REACTORS
330
3E0
102
}
330
3E0
100
AcDbXrecord
280
     1
270
     1
271
     1
  0
XRECORD
  5
3E4
102
{ACAD_REACTORS
330
3E0
102
}
330
3E0
100
AcDbXrecord
280
     1
270
     1
271
     1
  0
XRECORD
  5
3E6
102
{ACAD_REACTORS
330
3E0
102
}
330
3E0
100
AcDbXrecord
280
     1
270
     1
271
     1
  0
XRECORD
  5
3E3
102
{ACAD_REACTORS
330
3E0
102
}
330
3E0
100
AcDbXrecord
280
     1
270
     1
271
     1
  0
XRECORD
  5
3DA
102
{ACAD_REACTORS
330
3D8
102
}
330
3D8
100
AcDbXrecord
280
     1
270
     1
271
     1
  0
XRECORD
  5
3D9
102
{ACAD_REACTORS
330
3D8
102
}
330
3D8
100
AcDbXrecord
280
     1
270
     1
271
     1
  0
XRECORD
  5
3DD
102
{ACAD_REACTORS
330
3D8
102
}
330
3D8
100
AcDbXrecord
280
     1
270
     1
271
     1
  0
XRECORD
  5
3DC
102
{ACAD_REACTORS
330
3D8
102
}
330
3D8
100
AcDbXrecord
280
     1
270
     1
271
     1
  0
XRECORD
  5
3DE
102
{ACAD_REACTORS
330
3D8
102
}
330
3D8
100
AcDbXrecord
280
     1
270
     1
271
     1
  0
XRECORD
  5
3DB
102
{ACAD_REACTORS
330
3D8
102
}
330
3D8
100
AcDbXrecord
280
     1
270
     1
271
     1
  0
XRECORD
  5
3EA
102
{ACAD_REACTORS
330
3E8
102
}
330
3E8
100
AcDbXrecord
280
     1
270
     1
271
     1
  0
XRECORD
  5
3E9
102
{ACAD_REACTORS
330
3E8
102
}
330
3E8
100
AcDbXrecord
280
     1
270
     1
271
     1
  0
XRECORD
  5
3ED
102
{ACAD_REACTORS
330
3E8
102
}
330
3E8
100
AcDbXrecord
280
     1
270
     1
271
     1
  0
XRECORD
  5
3EC
102
{ACAD_REACTORS
330
3E8
102
}
330
3E8
100
AcDbXrecord
280
     1
270
     1
271
     1
  0
XRECORD
  5
3EE
102
{ACAD_REACTORS
330
3E8
102
}
330
3E8
100
AcDbXrecord
280
     1
270
     1
271
     1
  0
XRECORD
  5
3EB
102
{ACAD_REACTORS
330
3E8
102
}
330
3E8
100
AcDbXrecord
280
     1
270
     1
271
     1
  0
XRECORD
  5
4EF
102
{ACAD_REACTORS
330
4EE
102
}
330
4EE
100
AcDbXrecord
280
     1
102
ACAD_ROUNDTRIP_2012_MLEADER_STYLE
298
     1
  0
CELLSTYLEMAP
  5
4BB
102
{ACAD_REACTORS
330
4BA
102
}
330
4BA
100
AcDbCellStyleMap
 90
        3
300
CELLSTYLE
  1
TABLEFORMAT_BEGIN
 90
        5
170
     1
 91
        0
 92
    32768
 62
   257
 93
        1
300
CONTENTFORMAT
  1
CONTENTFORMAT_BEGIN
 90
        0
 91
        0
 92
      512
 93
        0
300

 40
0.0
140
1.0
 94
        5
 62
     0
340
1B
144
0.25
309
CONTENTFORMAT_END
171
     0
 94
        0
309
TABLEFORMAT_END
  1
CELLSTYLE_BEGIN
 90
        1
 91
        1
300
_TITLE
309
CELLSTYLE_END
300
CELLSTYLE
  1
TABLEFORMAT_BEGIN
 90
        5
170
     1
 91
        0
 92
        0
 62
   257
 93
        1
300
CONTENTFORMAT
  1
CONTENTFORMAT_BEGIN
 90
        0
 91
        0
 92
      512
 93
        0
300

 40
0.0
140
1.0
 94
        5
 62
     0
340
1B
144
0.18
309
CONTENTFORMAT_END
171
     0
 94
        0
309
TABLEFORMAT_END
  1
CELLSTYLE_BEGIN
 90
        2
 91
        1
300
_HEADER
309
CELLSTYLE_END
300
CELLSTYLE
  1
TABLEFORMAT_BEGIN
 90
        5
170
     1
 91
        0
 92
        0
 62
   257
 93
        1
300
CONTENTFORMAT
  1
CONTENTFORMAT_BEGIN
 90
        0
 91
        0
 92
      512
 93
        0
300

 40
0.0
140
1.0
 94
        2
 62
     0
340
1B
144
0.18
309
CONTENTFORMAT_END
171
     0
 94
        0
309
TABLEFORMAT_END
  1
CELLSTYLE_BEGIN
 90
        3
 91
        2
300
_DATA
309
CELLSTYLE_END
  0
XRECORD
  5
4C9
102
{ACAD_REACTORS
330
4C8
102
}
330
4C8
100
AcDbXrecord
280
     1
102
RTVSPost2010Prop28
280
     1
102
RTVSPost2010PropOp28
 70
     1
102
RTVSPost2010Prop29
280
     1
102
RTVSPost2010PropOp29
 70
     1
102
RTVSPost2010Prop30
280
     0
102
RTVSPost2010PropOp30
 70
     1
102
RTVSPost2010Prop31
280
     0
102
RTVSPost2010PropOp31
 70
     1
102
RTVSPost2010Prop32
280
     0
102
RTVSPost2010PropOp32
 70
     1
102
RTVSPost2010Prop33
280
     0
102
RTVSPost2010PropOp33
 70
     1
102
RTVSPost2010Prop34
280
     0
102
RTVSPost2010PropOp34
 70
     1
102
RTVSPost2010Prop35
280
     0
102
RTVSPost2010PropOp35
 70
     1
102
RTVSPost2010Prop36
280
     0
102
RTVSPost2010PropOp36
 70
     1
102
RTVSPost2010Prop37
 90
       50
102
RTVSPost2010PropOp37
 70
     1
102
RTVSPost2010Prop38
140
0.0
102
RTVSPost2010PropOp38
 70
     1
102
RTVSPost2010Prop39
140
1.0
102
RTVSPost2010PropOp39
 70
     1
102
RTVSPost2010Prop40
 90
        0
102
RTVSPost2010PropOp40
 70
     1
102
RTVSPost2010Prop41ColorIndex
 90
       18
102
RTVSPost2010Prop41ColorRGB
 90
        0
102
RTVSPost2010PropOp41
 70
     1
102
RTVSPost2010Prop42
 90
       50
102
RTVSPost2010PropOp42
 70
     1
102
RTVSPost2010Prop43
 90
        3
102
RTVSPost2010PropOp43
 70
     1
102
RTVSPost2010Prop44ColorIndex
 90
        5
102
RTVSPost2010Prop44ColorRGB
 90
      255
102
RTVSPost2010PropOp44
 70
     1
102
RTVSPost2010Prop45
280
     0
102
RTVSPost2010PropOp45
 70
     1
102
RTVSPost2010Prop46
 90
       50
102
RTVSPost2010PropOp46
 70
     1
102
RTVSPost2010Prop47
 90
       50
102
RTVSPost2010PropOp47
 70
     1
102
RTVSPost2010Prop48
 90
       50
102
RTVSPost2010PropOp48
 70
     1
102
RTVSPost2010Prop49
280
     0
102
RTVSPost2010PropOp49
 70
     1
102
RTVSPost2010Prop50
 90
       50
102
RTVSPost2010PropOp50
 70
     1
102
RTVSPost2010Prop51ColorIndex
 90
      256
102
RTVSPost2010Prop51ColorRGB
 90
-16777216
102
RTVSPost2010PropOp51
 70
     0
102
RTVSPost2010Prop52
140
1.0
102
RTVSPost2010PropOp52
 70
     0
102
RTVSPost2010Prop53
 90
        2
102
RTVSPost2010PropOp53
 70
     1
102
RTVSPost2010Prop54
  1
strokes_ogs.tif
102
RTVSPost2010PropOp54
 70
     1
102
RTVSPost2010Prop55
280
     0
102
RTVSPost2010PropOp55
 70
     1
102
RTVSPost2010Prop56
140
1.0
102
RTVSPost2010PropOp56
 70
     1
102
RTVSPost2010Prop57
140
1.0
102
RTVSPost2010PropOp57
 70
     1
  0
XRECORD
  5
4C7
102
{ACAD_REACTORS
330
4C6
102
}
330
4C6
100
AcDbXrecord
280
     1
102
RTVSPost2010Prop28
280
     0
102
RTVSPost2010PropOp28
 70
     1
102
RTVSPost2010Prop29
280
     1
102
RTVSPost2010PropOp29
 70
     1
102
RTVSPost2010Prop30
280
     1
102
RTVSPost2010PropOp30
 70
     1
102
RTVSPost2010Prop31
280
     0
102
RTVSPost2010PropOp31
 70
     1
102
RTVSPost2010Prop32
280
     0
102
RTVSPost2010PropOp32
 70
     1
102
RTVSPost2010Prop33
280
     0
102
RTVSPost2010PropOp33
 70
     1
102
RTVSPost2010Prop34
280
     0
102
RTVSPost2010PropOp34
 70
     1
102
RTVSPost2010Prop35
280
     0
102
RTVSPost2010PropOp35
 70
     1
102
RTVSPost2010Prop36
280
     0
102
RTVSPost2010PropOp36
 70
     1
102
RTVSPost2010Prop37
 90
       50
102
RTVSPost2010PropOp37
 70
     1
102
RTVSPost2010Prop38
140
0.0
102
RTVSPost2010PropOp38
 70
     1
102
RTVSPost2010Prop39
140
1.0
102
RTVSPost2010PropOp39
 70
     1
102
RTVSPost2010Prop40
 90
        0
102
RTVSPost2010PropOp40
 70
     1
102
RTVSPost2010Prop41ColorIndex
 90
       18
102
RTVSPost2010Prop41ColorRGB
 90
        0
102
RTVSPost2010PropOp41
 70
     1
102
RTVSPost2010Prop42
 90
       50
102
RTVSPost2010PropOp42
 70
     1
102
RTVSPost2010Prop43
 90
        3
102
RTVSPost2010PropOp43
 70
     1
102
RTVSPost2010Prop44ColorIndex
 90
        5
102
RTVSPost2010Prop44ColorRGB
 90
      255
102
RTVSPost2010PropOp44
 70
     1
102
RTVSPost2010Prop45
280
     0
102
RTVSPost2010PropOp45
 70
     1
102
RTVSPost2010Prop46
 90
       50
102
RTVSPost2010PropOp46
 70
     1
102
RTVSPost2010Prop47
 90
       50
102
RTVSPost2010PropOp47
 70
     1
102
RTVSPost2010Prop48
 90
       50
102
RTVSPost2010PropOp48
 70
     1
102
RTVSPost2010Prop49
280
     0
102
RTVSPost2010PropOp49
 70
     1
102
RTVSPost2010Prop50
 90
       50
102
RTVSPost2010PropOp50
 70
     1
102
RTVSPost2010Prop51ColorIndex
 90
      256
102
RTVSPost2010Prop51ColorRGB
 90
-16777216
102
RTVSPost2010PropOp51
 70
     0
102
RTVSPost2010Prop52
140
1.0
102
RTVSPost2010PropOp52
 70
     0
102
RTVSPost2010Prop53
 90
        2
102
RTVSPost2010PropOp53
 70
     1
102
RTVSPost2010Prop54
  1
strokes_ogs.tif
102
RTVSPost2010PropOp54
 70
     1
102
RTVSPost2010Prop55
280
     0
102
RTVSPost2010PropOp55
 70
     1
102
RTVSPost2010Prop56
140
1.0
102
RTVSPost2010PropOp56
 70
     1
102
RTVSPost2010Prop57
140
1.0
102
RTVSPost2010PropOp57
 70
     1
  0
XRECORD
  5
4D5
102
{ACAD_REACTORS
330
4D4
102
}
330
4D4
100
AcDbXrecord
280
     1
102
RTVSPost2010Prop28
280
     0
102
RTVSPost2010PropOp28
 70
     1
102
RTVSPost2010Prop29
280
     1
102
RTVSPost2010PropOp29
 70
     1
102
RTVSPost2010Prop30
280
     1
102
RTVSPost2010PropOp30
 70
     1
102
RTVSPost2010Prop31
280
     0
102
RTVSPost2010PropOp31
 70
     1
102
RTVSPost2010Prop32
280
     0
102
RTVSPost2010PropOp32
 70
     1
102
RTVSPost2010Prop33
280
     0
102
RTVSPost2010PropOp33
 70
     1
102
RTVSPost2010Prop34
280
     0
102
RTVSPost2010PropOp34
 70
     1
102
RTVSPost2010Prop35
280
     0
102
RTVSPost2010PropOp35
 70
     1
102
RTVSPost2010Prop36
280
     0
102
RTVSPost2010PropOp36
 70
     1
102
RTVSPost2010Prop37
 90
       50
102
RTVSPost2010PropOp37
 70
     1
102
RTVSPost2010Prop38
140
0.0
102
RTVSPost2010PropOp38
 70
     1
102
RTVSPost2010Prop39
140
1.0
102
RTVSPost2010PropOp39
 70
     1
102
RTVSPost2010Prop40
 90
        0
102
RTVSPost2010PropOp40
 70
     1
102
RTVSPost2010Prop41ColorIndex
 90
       18
102
RTVSPost2010Prop41ColorRGB
 90
        0
102
RTVSPost2010PropOp41
 70
     1
102
RTVSPost2010Prop42
 90
       50
102
RTVSPost2010PropOp42
 70
     1
102
RTVSPost2010Prop43
 90
        3
102
RTVSPost2010PropOp43
 70
     1
102
RTVSPost2010Prop44ColorIndex
 90
        5
102
RTVSPost2010Prop44ColorRGB
 90
      255
102
RTVSPost2010PropOp44
 70
     1
102
RTVSPost2010Prop45
280
     0
102
RTVSPost2010PropOp45
 70
     1
102
RTVSPost2010Prop46
 90
       50
102
RTVSPost2010PropOp46
 70
     1
102
RTVSPost2010Prop47
 90
       50
102
RTVSPost2010PropOp47
 70
     1
102
RTVSPost2010Prop48
 90
       50
102
RTVSPost2010PropOp48
 70
     1
102
RTVSPost2010Prop49
280
     0
102
RTVSPost2010PropOp49
 70
     1
102
RTVSPost2010Prop50
 90
       50
102
RTVSPost2010PropOp50
 70
     1
102
RTVSPost2010Prop51ColorIndex
 90
      256
102
RTVSPost2010Prop51ColorRGB
 90
-16777216
102
RTVSPost2010PropOp51
 70
     0
102
RTVSPost2010Prop52
140
1.0
102
RTVSPost2010PropOp52
 70
     0
102
RTVSPost2010Prop53
 90
        2
102
RTVSPost2010PropOp53
 70
     1
102
RTVSPost2010Prop54
  1
strokes_ogs.tif
102
RTVSPost2010PropOp54
 70
     1
102
RTVSPost2010Prop55
280
     0
102
RTVSPost2010PropOp55
 70
     1
102
RTVSPost2010Prop56
140
1.0
102
RTVSPost2010PropOp56
 70
     1
102
RTVSPost2010Prop57
140
1.0
102
RTVSPost2010PropOp57
 70
     1
  0
XRECORD
  5
4DD
102
{ACAD_REACTORS
330
4DC
102
}
330
4DC
100
AcDbXrecord
280
     1
102
RTVSPost2010Prop28
280
     0
102
RTVSPost2010PropOp28
 70
     1
102
RTVSPost2010Prop29
280
     1
102
RTVSPost2010PropOp29
 70
     1
102
RTVSPost2010Prop30
280
     1
102
RTVSPost2010PropOp30
 70
     1
102
RTVSPost2010Prop31
280
     0
102
RTVSPost2010PropOp31
 70
     1
102
RTVSPost2010Prop32
280
     0
102
RTVSPost2010PropOp32
 70
     1
102
RTVSPost2010Prop33
280
     0
102
RTVSPost2010PropOp33
 70
     1
102
RTVSPost2010Prop34
280
     0
102
RTVSPost2010PropOp34
 70
     1
102
RTVSPost2010Prop35
280
     0
102
RTVSPost2010PropOp35
 70
     1
102
RTVSPost2010Prop36
280
     0
102
RTVSPost2010PropOp36
 70
     1
102
RTVSPost2010Prop37
 90
       50
102
RTVSPost2010PropOp37
 70
     1
102
RTVSPost2010Prop38
140
0.0
102
RTVSPost2010PropOp38
 70
     1
102
RTVSPost2010Prop39
140
1.0
102
RTVSPost2010PropOp39
 70
     1
102
RTVSPost2010Prop40
 90
        0
102
RTVSPost2010PropOp40
 70
     1
102
RTVSPost2010Prop41ColorIndex
 90
       18
102
RTVSPost2010Prop41ColorRGB
 90
        0
102
RTVSPost2010PropOp41
 70
     1
102
RTVSPost2010Prop42
 90
       50
102
RTVSPost2010PropOp42
 70
     1
102
RTVSPost2010Prop43
 90
        3
102
RTVSPost2010PropOp43
 70
     1
102
RTVSPost2010Prop44ColorIndex
 90
        5
102
RTVSPost2010Prop44ColorRGB
 90
      255
102
RTVSPost2010PropOp44
 70
     1
102
RTVSPost2010Prop45
280
     0
102
RTVSPost2010PropOp45
 70
     1
102
RTVSPost2010Prop46
 90
       50
102
RTVSPost2010PropOp46
 70
     1
102
RTVSPost2010Prop47
 90
       50
102
RTVSPost2010PropOp47
 70
     1
102
RTVSPost2010Prop48
 90
       50
102
RTVSPost2010PropOp48
 70
     1
102
RTVSPost2010Prop49
280
     0
102
RTVSPost2010PropOp49
 70
     1
102
RTVSPost2010Prop50
 90
       50
102
RTVSPost2010PropOp50
 70
     1
102
RTVSPost2010Prop51ColorIndex
 90
      256
102
RTVSPost2010Prop51ColorRGB
 90
-16777216
102
RTVSPost2010PropOp51
 70
     0
102
RTVSPost2010Prop52
140
1.0
102
RTVSPost2010PropOp52
 70
     0
102
RTVSPost2010Prop53
 90
        2
102
RTVSPost2010PropOp53
 70
     1
102
RTVSPost2010Prop54
  1
strokes_ogs.tif
102
RTVSPost2010PropOp54
 70
     1
102
RTVSPost2010Prop55
280
     0
102
RTVSPost2010PropOp55
 70
     1
102
RTVSPost2010Prop56
140
1.0
102
RTVSPost2010PropOp56
 70
     1
102
RTVSPost2010Prop57
140
1.0
102
RTVSPost2010PropOp57
 70
     1
  0
XRECORD
  5
4CF
102
{ACAD_REACTORS
330
4CE
102
}
330
4CE
100
AcDbXrecord
280
     1
102
RTVSPost2010Prop28
280
     0
102
RTVSPost2010PropOp28
 70
     1
102
RTVSPost2010Prop29
280
     1
102
RTVSPost2010PropOp29
 70
     1
102
RTVSPost2010Prop30
280
     1
102
RTVSPost2010PropOp30
 70
     1
102
RTVSPost2010Prop31
280
     0
102
RTVSPost2010PropOp31
 70
     1
102
RTVSPost2010Prop32
280
     0
102
RTVSPost2010PropOp32
 70
     1
102
RTVSPost2010Prop33
280
     0
102
RTVSPost2010PropOp33
 70
     1
102
RTVSPost2010Prop34
280
     0
102
RTVSPost2010PropOp34
 70
     1
102
RTVSPost2010Prop35
280
     0
102
RTVSPost2010PropOp35
 70
     1
102
RTVSPost2010Prop36
280
     0
102
RTVSPost2010PropOp36
 70
     1
102
RTVSPost2010Prop37
 90
       50
102
RTVSPost2010PropOp37
 70
     1
102
RTVSPost2010Prop38
140
0.0
102
RTVSPost2010PropOp38
 70
     1
102
RTVSPost2010Prop39
140
1.0
102
RTVSPost2010PropOp39
 70
     1
102
RTVSPost2010Prop40
 90
        0
102
RTVSPost2010PropOp40
 70
     1
102
RTVSPost2010Prop41ColorIndex
 90
       18
102
RTVSPost2010Prop41ColorRGB
 90
        0
102
RTVSPost2010PropOp41
 70
     1
102
RTVSPost2010Prop42
 90
       50
102
RTVSPost2010PropOp42
 70
     1
102
RTVSPost2010Prop43
 90
        3
102
RTVSPost2010PropOp43
 70
     1
102
RTVSPost2010Prop44ColorIndex
 90
        5
102
RTVSPost2010Prop44ColorRGB
 90
      255
102
RTVSPost2010PropOp44
 70
     1
102
RTVSPost2010Prop45
280
     0
102
RTVSPost2010PropOp45
 70
     1
102
RTVSPost2010Prop46
 90
       50
102
RTVSPost2010PropOp46
 70
     1
102
RTVSPost2010Prop47
 90
       50
102
RTVSPost2010PropOp47
 70
     1
102
RTVSPost2010Prop48
 90
       50
102
RTVSPost2010PropOp48
 70
     1
102
RTVSPost2010Prop49
280
     0
102
RTVSPost2010PropOp49
 70
     1
102
RTVSPost2010Prop50
 90
       50
102
RTVSPost2010PropOp50
 70
     1
102
RTVSPost2010Prop51ColorIndex
 90
      256
102
RTVSPost2010Prop51ColorRGB
 90
-16777216
102
RTVSPost2010PropOp51
 70
     0
102
RTVSPost2010Prop52
140
1.0
102
RTVSPost2010PropOp52
 70
     0
102
RTVSPost2010Prop53
 90
        2
102
RTVSPost2010PropOp53
 70
     1
102
RTVSPost2010Prop54
  1
strokes_ogs.tif
102
RTVSPost2010PropOp54
 70
     1
102
RTVSPost2010Prop55
280
     0
102
RTVSPost2010PropOp55
 70
     1
102
RTVSPost2010Prop56
140
1.0
102
RTVSPost2010PropOp56
 70
     1
102
RTVSPost2010Prop57
140
1.0
102
RTVSPost2010PropOp57
 70
     1
  0
XRECORD
  5
4D3
102
{ACAD_REACTORS
330
4D2
102
}
330
4D2
100
AcDbXrecord
280
     1
102
RTVSPost2010Prop28
280
     0
102
RTVSPost2010PropOp28
 70
     1
102
RTVSPost2010Prop29
280
     1
102
RTVSPost2010PropOp29
 70
     1
102
RTVSPost2010Prop30
280
     1
102
RTVSPost2010PropOp30
 70
     1
102
RTVSPost2010Prop31
280
     0
102
RTVSPost2010PropOp31
 70
     1
102
RTVSPost2010Prop32
280
     0
102
RTVSPost2010PropOp32
 70
     1
102
RTVSPost2010Prop33
280
     0
102
RTVSPost2010PropOp33
 70
     1
102
RTVSPost2010Prop34
280
     0
102
RTVSPost2010PropOp34
 70
     1
102
RTVSPost2010Prop35
280
     0
102
RTVSPost2010PropOp35
 70
     1
102
RTVSPost2010Prop36
280
     0
102
RTVSPost2010PropOp36
 70
     1
102
RTVSPost2010Prop37
 90
       50
102
RTVSPost2010PropOp37
 70
     1
102
RTVSPost2010Prop38
140
0.0
102
RTVSPost2010PropOp38
 70
     1
102
RTVSPost2010Prop39
140
1.0
102
RTVSPost2010PropOp39
 70
     1
102
RTVSPost2010Prop40
 90
        0
102
RTVSPost2010PropOp40
 70
     1
102
RTVSPost2010Prop41ColorIndex
 90
       18
102
RTVSPost2010Prop41ColorRGB
 90
        0
102
RTVSPost2010PropOp41
 70
     1
102
RTVSPost2010Prop42
 90
       50
102
RTVSPost2010PropOp42
 70
     1
102
RTVSPost2010Prop43
 90
        3
102
RTVSPost2010PropOp43
 70
     1
102
RTVSPost2010Prop44ColorIndex
 90
        5
102
RTVSPost2010Prop44ColorRGB
 90
      255
102
RTVSPost2010PropOp44
 70
     1
102
RTVSPost2010Prop45
280
     0
102
RTVSPost2010PropOp45
 70
     1
102
RTVSPost2010Prop46
 90
       50
102
RTVSPost2010PropOp46
 70
     1
102
RTVSPost2010Prop47
 90
       50
102
RTVSPost2010PropOp47
 70
     1
102
RTVSPost2010Prop48
 90
       50
102
RTVSPost2010PropOp48
 70
     1
102
RTVSPost2010Prop49
280
     0
102
RTVSPost2010PropOp49
 70
     1
102
RTVSPost2010Prop50
 90
       50
102
RTVSPost2010PropOp50
 70
     1
102
RTVSPost2010Prop51ColorIndex
 90
      256
102
RTVSPost2010Prop51ColorRGB
 90
-16777216
102
RTVSPost2010PropOp51
 70
     0
102
RTVSPost2010Prop52
140
1.0
102
RTVSPost2010PropOp52
 70
     0
102
RTVSPost2010Prop53
 90
        2
102
RTVSPost2010PropOp53
 70
     1
102
RTVSPost2010Prop54
  1
strokes_ogs.tif
102
RTVSPost2010PropOp54
 70
     1
102
RTVSPost2010Prop55
280
     0
102
RTVSPost2010PropOp55
 70
     1
102
RTVSPost2010Prop56
140
1.0
102
RTVSPost2010PropOp56
 70
     1
102
RTVSPost2010Prop57
140
1.0
102
RTVSPost2010PropOp57
 70
     1
  0
XRECORD
  5
4ED
102
{ACAD_REACTORS
330
4EC
102
}
330
4EC
100
AcDbXrecord
280
     1
102
RTVSPost2010Prop28
280
     0
102
RTVSPost2010PropOp28
 70
     0
102
RTVSPost2010Prop29
280
     1
102
RTVSPost2010PropOp29
 70
     0
102
RTVSPost2010Prop30
280
     1
102
RTVSPost2010PropOp30
 70
     0
102
RTVSPost2010Prop31
280
     0
102
RTVSPost2010PropOp31
 70
     0
102
RTVSPost2010Prop32
280
     0
102
RTVSPost2010PropOp32
 70
     0
102
RTVSPost2010Prop33
280
     0
102
RTVSPost2010PropOp33
 70
     0
102
RTVSPost2010Prop34
280
     0
102
RTVSPost2010PropOp34
 70
     0
102
RTVSPost2010Prop35
280
     0
102
RTVSPost2010PropOp35
 70
     0
102
RTVSPost2010Prop36
280
     0
102
RTVSPost2010PropOp36
 70
     0
102
RTVSPost2010Prop37
 90
       50
102
RTVSPost2010PropOp37
 70
     0
102
RTVSPost2010Prop38
140
0.0
102
RTVSPost2010PropOp38
 70
     0
102
RTVSPost2010Prop39
140
1.0
102
RTVSPost2010PropOp39
 70
     0
102
RTVSPost2010Prop40
 90
        0
102
RTVSPost2010PropOp40
 70
     0
102
RTVSPost2010Prop41ColorIndex
 90
       18
102
RTVSPost2010Prop41ColorRGB
 90
        0
102
RTVSPost2010PropOp41
 70
     0
102
RTVSPost2010Prop42
 90
       50
102
RTVSPost2010PropOp42
 70
     0
102
RTVSPost2010Prop43
 90
        3
102
RTVSPost2010PropOp43
 70
     0
102
RTVSPost2010Prop44ColorIndex
 90
        5
102
RTVSPost2010Prop44ColorRGB
 90
      255
102
RTVSPost2010PropOp44
 70
     0
102
RTVSPost2010Prop45
280
     0
102
RTVSPost2010PropOp45
 70
     0
102
RTVSPost2010Prop46
 90
       50
102
RTVSPost2010PropOp46
 70
     0
102
RTVSPost2010Prop47
 90
       50
102
RTVSPost2010PropOp47
 70
     0
102
RTVSPost2010Prop48
 90
       50
102
RTVSPost2010PropOp48
 70
     0
102
RTVSPost2010Prop49
280
     0
102
RTVSPost2010PropOp49
 70
     0
102
RTVSPost2010Prop50
 90
       50
102
RTVSPost2010PropOp50
 70
     0
102
RTVSPost2010Prop51ColorIndex
 90
      256
102
RTVSPost2010Prop51ColorRGB
 90
-16777216
102
RTVSPost2010PropOp51
 70
     0
102
RTVSPost2010Prop52
140
1.0
102
RTVSPost2010PropOp52
 70
     0
102
RTVSPost2010Prop53
 90
        2
102
RTVSPost2010PropOp53
 70
     0
102
RTVSPost2010Prop54
  1
strokes_ogs.tif
102
RTVSPost2010PropOp54
 70
     0
102
RTVSPost2010Prop55
280
     0
102
RTVSPost2010PropOp55
 70
     0
102
RTVSPost2010Prop56
140
1.0
102
RTVSPost2010PropOp56
 70
     0
102
RTVSPost2010Prop57
140
1.0
102
RTVSPost2010PropOp57
 70
     0
  0
XRECORD
  5
4DB
102
{ACAD_REACTORS
330
4DA
102
}
330
4DA
100
AcDbXrecord
280
     1
102
RTVSPost2010Prop28
280
     0
102
RTVSPost2010PropOp28
 70
     1
102
RTVSPost2010Prop29
280
     1
102
RTVSPost2010PropOp29
 70
     1
102
RTVSPost2010Prop30
280
     1
102
RTVSPost2010PropOp30
 70
     1
102
RTVSPost2010Prop31
280
     0
102
RTVSPost2010PropOp31
 70
     1
102
RTVSPost2010Prop32
280
     0
102
RTVSPost2010PropOp32
 70
     1
102
RTVSPost2010Prop33
280
     0
102
RTVSPost2010PropOp33
 70
     1
102
RTVSPost2010Prop34
280
     0
102
RTVSPost2010PropOp34
 70
     1
102
RTVSPost2010Prop35
280
     0
102
RTVSPost2010PropOp35
 70
     1
102
RTVSPost2010Prop36
280
     0
102
RTVSPost2010PropOp36
 70
     1
102
RTVSPost2010Prop37
 90
       50
102
RTVSPost2010PropOp37
 70
     1
102
RTVSPost2010Prop38
140
0.0
102
RTVSPost2010PropOp38
 70
     1
102
RTVSPost2010Prop39
140
1.0
102
RTVSPost2010PropOp39
 70
     1
102
RTVSPost2010Prop40
 90
        0
102
RTVSPost2010PropOp40
 70
     1
102
RTVSPost2010Prop41ColorIndex
 90
       18
102
RTVSPost2010Prop41ColorRGB
 90
        0
102
RTVSPost2010PropOp41
 70
     1
102
RTVSPost2010Prop42
 90
       50
102
RTVSPost2010PropOp42
 70
     1
102
RTVSPost2010Prop43
 90
        3
102
RTVSPost2010PropOp43
 70
     1
102
RTVSPost2010Prop44ColorIndex
 90
        5
102
RTVSPost2010Prop44ColorRGB
 90
      255
102
RTVSPost2010PropOp44
 70
     1
102
RTVSPost2010Prop45
280
     0
102
RTVSPost2010PropOp45
 70
     1
102
RTVSPost2010Prop46
 90
       50
102
RTVSPost2010PropOp46
 70
     1
102
RTVSPost2010Prop47
 90
       50
102
RTVSPost2010PropOp47
 70
     1
102
RTVSPost2010Prop48
 90
       50
102
RTVSPost2010PropOp48
 70
     1
102
RTVSPost2010Prop49
280
     0
102
RTVSPost2010PropOp49
 70
     1
102
RTVSPost2010Prop50
 90
       50
102
RTVSPost2010PropOp50
 70
     1
102
RTVSPost2010Prop51ColorIndex
 90
      256
102
RTVSPost2010Prop51ColorRGB
 90
-16777216
102
RTVSPost2010PropOp51
 70
     0
102
RTVSPost2010Prop52
140
1.0
102
RTVSPost2010PropOp52
 70
     0
102
RTVSPost2010Prop53
 90
        2
102
RTVSPost2010PropOp53
 70
     1
102
RTVSPost2010Prop54
  1
strokes_ogs.tif
102
RTVSPost2010PropOp54
 70
     1
102
RTVSPost2010Prop55
280
     0
102
RTVSPost2010PropOp55
 70
     1
102
RTVSPost2010Prop56
140
1.0
102
RTVSPost2010PropOp56
 70
     1
102
RTVSPost2010Prop57
140
1.0
102
RTVSPost2010PropOp57
 70
     1
  0
XRECORD
  5
4BF
102
{ACAD_REACTORS
330
4BE
102
}
330
4BE
100
AcDbXrecord
280
     1
102
RTVSPost2010Prop28
280
     0
102
RTVSPost2010PropOp28
 70
     1
102
RTVSPost2010Prop29
280
     1
102
RTVSPost2010PropOp29
 70
     1
102
RTVSPost2010Prop30
280
     1
102
RTVSPost2010PropOp30
 70
     1
102
RTVSPost2010Prop31
280
     0
102
RTVSPost2010PropOp31
 70
     1
102
RTVSPost2010Prop32
280
     0
102
RTVSPost2010PropOp32
 70
     1
102
RTVSPost2010Prop33
280
     0
102
RTVSPost2010PropOp33
 70
     1
102
RTVSPost2010Prop34
280
     0
102
RTVSPost2010PropOp34
 70
     1
102
RTVSPost2010Prop35
280
     0
102
RTVSPost2010PropOp35
 70
     1
102
RTVSPost2010Prop36
280
     0
102
RTVSPost2010PropOp36
 70
     1
102
RTVSPost2010Prop37
 90
       50
102
RTVSPost2010PropOp37
 70
     1
102
RTVSPost2010Prop38
140
0.0
102
RTVSPost2010PropOp38
 70
     1
102
RTVSPost2010Prop39
140
1.0
102
RTVSPost2010PropOp39
 70
     1
102
RTVSPost2010Prop40
 90
        0
102
RTVSPost2010PropOp40
 70
     1
102
RTVSPost2010Prop41ColorIndex
 90
       18
102
RTVSPost2010Prop41ColorRGB
 90
        0
102
RTVSPost2010PropOp41
 70
     1
102
RTVSPost2010Prop42
 90
       50
102
RTVSPost2010PropOp42
 70
     1
102
RTVSPost2010Prop43
 90
        3
102
RTVSPost2010PropOp43
 70
     1
102
RTVSPost2010Prop44ColorIndex
 90
        5
102
RTVSPost2010Prop44ColorRGB
 90
      255
102
RTVSPost2010PropOp44
 70
     1
102
RTVSPost2010Prop45
280
     0
102
RTVSPost2010PropOp45
 70
     1
102
RTVSPost2010Prop46
 90
       50
102
RTVSPost2010PropOp46
 70
     1
102
RTVSPost2010Prop47
 90
       50
102
RTVSPost2010PropOp47
 70
     1
102
RTVSPost2010Prop48
 90
       50
102
RTVSPost2010PropOp48
 70
     1
102
RTVSPost2010Prop49
280
     0
102
RTVSPost2010PropOp49
 70
     1
102
RTVSPost2010Prop50
 90
       50
102
RTVSPost2010PropOp50
 70
     1
102
RTVSPost2010Prop51ColorIndex
 90
      256
102
RTVSPost2010Prop51ColorRGB
 90
-16777216
102
RTVSPost2010PropOp51
 70
     0
102
RTVSPost2010Prop52
140
1.0
102
RTVSPost2010PropOp52
 70
     0
102
RTVSPost2010Prop53
 90
        2
102
RTVSPost2010PropOp53
 70
     1
102
RTVSPost2010Prop54
  1
strokes_ogs.tif
102
RTVSPost2010PropOp54
 70
     1
102
RTVSPost2010Prop55
280
     0
102
RTVSPost2010PropOp55
 70
     1
102
RTVSPost2010Prop56
140
1.0
102
RTVSPost2010PropOp56
 70
     1
102
RTVSPost2010Prop57
140
1.0
102
RTVSPost2010PropOp57
 70
     1
  0
XRECORD
  5
4C1
102
{ACAD_REACTORS
330
4C0
102
}
330
4C0
100
AcDbXrecord
280
     1
102
RTVSPost2010Prop28
280
     0
102
RTVSPost2010PropOp28
 70
     1
102
RTVSPost2010Prop29
280
     1
102
RTVSPost2010PropOp29
 70
     1
102
RTVSPost2010Prop30
280
     1
102
RTVSPost2010PropOp30
 70
     1
102
RTVSPost2010Prop31
280
     0
102
RTVSPost2010PropOp31
 70
     1
102
RTVSPost2010Prop32
280
     0
102
RTVSPost2010PropOp32
 70
     1
102
RTVSPost2010Prop33
280
     0
102
RTVSPost2010PropOp33
 70
     1
102
RTVSPost2010Prop34
280
     0
102
RTVSPost2010PropOp34
 70
     1
102
RTVSPost2010Prop35
280
     0
102
RTVSPost2010PropOp35
 70
     1
102
RTVSPost2010Prop36
280
     0
102
RTVSPost2010PropOp36
 70
     1
102
RTVSPost2010Prop37
 90
       50
102
RTVSPost2010PropOp37
 70
     1
102
RTVSPost2010Prop38
140
0.0
102
RTVSPost2010PropOp38
 70
     1
102
RTVSPost2010Prop39
140
1.0
102
RTVSPost2010PropOp39
 70
     1
102
RTVSPost2010Prop40
 90
        0
102
RTVSPost2010PropOp40
 70
     1
102
RTVSPost2010Prop41ColorIndex
 90
       18
102
RTVSPost2010Prop41ColorRGB
 90
        0
102
RTVSPost2010PropOp41
 70
     1
102
RTVSPost2010Prop42
 90
       50
102
RTVSPost2010PropOp42
 70
     1
102
RTVSPost2010Prop43
 90
        3
102
RTVSPost2010PropOp43
 70
     1
102
RTVSPost2010Prop44ColorIndex
 90
        5
102
RTVSPost2010Prop44ColorRGB
 90
      255
102
RTVSPost2010PropOp44
 70
     1
102
RTVSPost2010Prop45
280
     0
102
RTVSPost2010PropOp45
 70
     1
102
RTVSPost2010Prop46
 90
       50
102
RTVSPost2010PropOp46
 70
     1
102
RTVSPost2010Prop47
 90
       50
102
RTVSPost2010PropOp47
 70
     1
102
RTVSPost2010Prop48
 90
       50
102
RTVSPost2010PropOp48
 70
     1
102
RTVSPost2010Prop49
280
     0
102
RTVSPost2010PropOp49
 70
     1
102
RTVSPost2010Prop50
 90
       50
102
RTVSPost2010PropOp50
 70
     1
102
RTVSPost2010Prop51ColorIndex
 90
      256
102
RTVSPost2010Prop51ColorRGB
 90
-16777216
102
RTVSPost2010PropOp51
 70
     0
102
RTVSPost2010Prop52
140
1.0
102
RTVSPost2010PropOp52
 70
     0
102
RTVSPost2010Prop53
 90
        2
102
RTVSPost2010PropOp53
 70
     1
102
RTVSPost2010Prop54
  1
strokes_ogs.tif
102
RTVSPost2010PropOp54
 70
     1
102
RTVSPost2010Prop55
280
     0
102
RTVSPost2010PropOp55
 70
     1
102
RTVSPost2010Prop56
140
1.0
102
RTVSPost2010PropOp56
 70
     1
102
RTVSPost2010Prop57
140
1.0
102
RTVSPost2010PropOp57
 70
     1
  0
XRECORD
  5
4C3
102
{ACAD_REACTORS
330
4C2
102
}
330
4C2
100
AcDbXrecord
280
     1
102
RTVSPost2010Prop28
280
     0
102
RTVSPost2010PropOp28
 70
     1
102
RTVSPost2010Prop29
280
     1
102
RTVSPost2010PropOp29
 70
     1
102
RTVSPost2010Prop30
280
     1
102
RTVSPost2010PropOp30
 70
     1
102
RTVSPost2010Prop31
280
     0
102
RTVSPost2010PropOp31
 70
     1
102
RTVSPost2010Prop32
280
     0
102
RTVSPost2010PropOp32
 70
     1
102
RTVSPost2010Prop33
280
     0
102
RTVSPost2010PropOp33
 70
     1
102
RTVSPost2010Prop34
280
     0
102
RTVSPost2010PropOp34
 70
     1
102
RTVSPost2010Prop35
280
     0
102
RTVSPost2010PropOp35
 70
     1
102
RTVSPost2010Prop36
280
     0
102
RTVSPost2010PropOp36
 70
     1
102
RTVSPost2010Prop37
 90
       50
102
RTVSPost2010PropOp37
 70
     1
102
RTVSPost2010Prop38
140
0.0
102
RTVSPost2010PropOp38
 70
     1
102
RTVSPost2010Prop39
140
1.0
102
RTVSPost2010PropOp39
 70
     1
102
RTVSPost2010Prop40
 90
        0
102
RTVSPost2010PropOp40
 70
     1
102
RTVSPost2010Prop41ColorIndex
 90
       18
102
RTVSPost2010Prop41ColorRGB
 90
        0
102
RTVSPost2010PropOp41
 70
     1
102
RTVSPost2010Prop42
 90
       50
102
RTVSPost2010PropOp42
 70
     1
102
RTVSPost2010Prop43
 90
        3
102
RTVSPost2010PropOp43
 70
     1
102
RTVSPost2010Prop44ColorIndex
 90
        5
102
RTVSPost2010Prop44ColorRGB
 90
      255
102
RTVSPost2010PropOp44
 70
     1
102
RTVSPost2010Prop45
280
     0
102
RTVSPost2010PropOp45
 70
     1
102
RTVSPost2010Prop46
 90
       50
102
RTVSPost2010PropOp46
 70
     1
102
RTVSPost2010Prop47
 90
       50
102
RTVSPost2010PropOp47
 70
     1
102
RTVSPost2010Prop48
 90
       50
102
RTVSPost2010PropOp48
 70
     1
102
RTVSPost2010Prop49
280
     0
102
RTVSPost2010PropOp49
 70
     1
102
RTVSPost2010Prop50
 90
       50
102
RTVSPost2010PropOp50
 70
     1
102
RTVSPost2010Prop51ColorIndex
 90
      256
102
RTVSPost2010Prop51ColorRGB
 90
-16777216
102
RTVSPost2010PropOp51
 70
     0
102
RTVSPost2010Prop52
140
1.0
102
RTVSPost2010PropOp52
 70
     0
102
RTVSPost2010Prop53
 90
        2
102
RTVSPost2010PropOp53
 70
     1
102
RTVSPost2010Prop54
  1
strokes_ogs.tif
102
RTVSPost2010PropOp54
 70
     1
102
RTVSPost2010Prop55
280
     0
102
RTVSPost2010PropOp55
 70
     1
102
RTVSPost2010Prop56
140
1.0
102
RTVSPost2010PropOp56
 70
     1
102
RTVSPost2010Prop57
140
1.0
102
RTVSPost2010PropOp57
 70
     1
  0
XRECORD
  5
4C5
102
{ACAD_REACTORS
330
4C4
102
}
330
4C4
100
AcDbXrecord
280
     1
102
RTVSPost2010Prop28
280
     0
102
RTVSPost2010PropOp28
 70
     1
102
RTVSPost2010Prop29
280
     1
102
RTVSPost2010PropOp29
 70
     1
102
RTVSPost2010Prop30
280
     1
102
RTVSPost2010PropOp30
 70
     1
102
RTVSPost2010Prop31
280
     0
102
RTVSPost2010PropOp31
 70
     1
102
RTVSPost2010Prop32
280
     0
102
RTVSPost2010PropOp32
 70
     1
102
RTVSPost2010Prop33
280
     0
102
RTVSPost2010PropOp33
 70
     1
102
RTVSPost2010Prop34
280
     0
102
RTVSPost2010PropOp34
 70
     1
102
RTVSPost2010Prop35
280
     0
102
RTVSPost2010PropOp35
 70
     1
102
RTVSPost2010Prop36
280
     0
102
RTVSPost2010PropOp36
 70
     1
102
RTVSPost2010Prop37
 90
       50
102
RTVSPost2010PropOp37
 70
     1
102
RTVSPost2010Prop38
140
0.0
102
RTVSPost2010PropOp38
 70
     1
102
RTVSPost2010Prop39
140
1.0
102
RTVSPost2010PropOp39
 70
     1
102
RTVSPost2010Prop40
 90
        0
102
RTVSPost2010PropOp40
 70
     1
102
RTVSPost2010Prop41ColorIndex
 90
       18
102
RTVSPost2010Prop41ColorRGB
 90
        0
102
RTVSPost2010PropOp41
 70
     1
102
RTVSPost2010Prop42
 90
       50
102
RTVSPost2010PropOp42
 70
     1
102
RTVSPost2010Prop43
 90
        3
102
RTVSPost2010PropOp43
 70
     1
102
RTVSPost2010Prop44ColorIndex
 90
        5
102
RTVSPost2010Prop44ColorRGB
 90
      255
102
RTVSPost2010PropOp44
 70
     1
102
RTVSPost2010Prop45
280
     0
102
RTVSPost2010PropOp45
 70
     1
102
RTVSPost2010Prop46
 90
       50
102
RTVSPost2010PropOp46
 70
     1
102
RTVSPost2010Prop47
 90
       50
102
RTVSPost2010PropOp47
 70
     1
102
RTVSPost2010Prop48
 90
       50
102
RTVSPost2010PropOp48
 70
     1
102
RTVSPost2010Prop49
280
     0
102
RTVSPost2010PropOp49
 70
     1
102
RTVSPost2010Prop50
 90
       50
102
RTVSPost2010PropOp50
 70
     1
102
RTVSPost2010Prop51ColorIndex
 90
      256
102
RTVSPost2010Prop51ColorRGB
 90
-16777216
102
RTVSPost2010PropOp51
 70
     0
102
RTVSPost2010Prop52
140
1.0
102
RTVSPost2010PropOp52
 70
     0
102
RTVSPost2010Prop53
 90
        2
102
RTVSPost2010PropOp53
 70
     1
102
RTVSPost2010Prop54
  1
strokes_ogs.tif
102
RTVSPost2010PropOp54
 70
     1
102
RTVSPost2010Prop55
280
     0
102
RTVSPost2010PropOp55
 70
     1
102
RTVSPost2010Prop56
140
1.0
102
RTVSPost2010PropOp56
 70
     1
102
RTVSPost2010Prop57
140
1.0
102
RTVSPost2010PropOp57
 70
     1
  0
XRECORD
  5
4CD
102
{ACAD_REACTORS
330
4CC
102
}
330
4CC
100
AcDbXrecord
280
     1
102
RTVSPost2010Prop28
280
     0
102
RTVSPost2010PropOp28
 70
     1
102
RTVSPost2010Prop29
280
     1
102
RTVSPost2010PropOp29
 70
     1
102
RTVSPost2010Prop30
280
     1
102
RTVSPost2010PropOp30
 70
     1
102
RTVSPost2010Prop31
280
     0
102
RTVSPost2010PropOp31
 70
     1
102
RTVSPost2010Prop32
280
     0
102
RTVSPost2010PropOp32
 70
     1
102
RTVSPost2010Prop33
280
     0
102
RTVSPost2010PropOp33
 70
     1
102
RTVSPost2010Prop34
280
     0
102
RTVSPost2010PropOp34
 70
     1
102
RTVSPost2010Prop35
280
     0
102
RTVSPost2010PropOp35
 70
     1
102
RTVSPost2010Prop36
280
     0
102
RTVSPost2010PropOp36
 70
     1
102
RTVSPost2010Prop37
 90
       50
102
RTVSPost2010PropOp37
 70
     1
102
RTVSPost2010Prop38
140
0.0
102
RTVSPost2010PropOp38
 70
     1
102
RTVSPost2010Prop39
140
1.0
102
RTVSPost2010PropOp39
 70
     1
102
RTVSPost2010Prop40
 90
        0
102
RTVSPost2010PropOp40
 70
     1
102
RTVSPost2010Prop41ColorIndex
 90
       18
102
RTVSPost2010Prop41ColorRGB
 90
        0
102
RTVSPost2010PropOp41
 70
     1
102
RTVSPost2010Prop42
 90
       50
102
RTVSPost2010PropOp42
 70
     1
102
RTVSPost2010Prop43
 90
        3
102
RTVSPost2010PropOp43
 70
     1
102
RTVSPost2010Prop44ColorIndex
 90
        5
102
RTVSPost2010Prop44ColorRGB
 90
      255
102
RTVSPost2010PropOp44
 70
     1
102
RTVSPost2010Prop45
280
     0
102
RTVSPost2010PropOp45
 70
     1
102
RTVSPost2010Prop46
 90
       50
102
RTVSPost2010PropOp46
 70
     1
102
RTVSPost2010Prop47
 90
       50
102
RTVSPost2010PropOp47
 70
     1
102
RTVSPost2010Prop48
 90
       50
102
RTVSPost2010PropOp48
 70
     1
102
RTVSPost2010Prop49
280
     0
102
RTVSPost2010PropOp49
 70
     1
102
RTVSPost2010Prop50
 90
       50
102
RTVSPost2010PropOp50
 70
     1
102
RTVSPost2010Prop51ColorIndex
 90
      256
102
RTVSPost2010Prop51ColorRGB
 90
-16777216
102
RTVSPost2010PropOp51
 70
     0
102
RTVSPost2010Prop52
140
1.0
102
RTVSPost2010PropOp52
 70
     0
102
RTVSPost2010Prop53
 90
        2
102
RTVSPost2010PropOp53
 70
     1
102
RTVSPost2010Prop54
  1
strokes_ogs.tif
102
RTVSPost2010PropOp54
 70
     1
102
RTVSPost2010Prop55
280
     0
102
RTVSPost2010PropOp55
 70
     1
102
RTVSPost2010Prop56
140
1.0
102
RTVSPost2010PropOp56
 70
     1
102
RTVSPost2010Prop57
140
1.0
102
RTVSPost2010PropOp57
 70
     1
  0
XRECORD
  5
4E9
102
{ACAD_REACTORS
330
4E8
102
}
330
4E8
100
AcDbXrecord
280
     1
102
RTVSPost2010Prop28
280
     0
102
RTVSPost2010PropOp28
 70
     0
102
RTVSPost2010Prop29
280
     1
102
RTVSPost2010PropOp29
 70
     0
102
RTVSPost2010Prop30
280
     1
102
RTVSPost2010PropOp30
 70
     0
102
RTVSPost2010Prop31
280
     0
102
RTVSPost2010PropOp31
 70
     0
102
RTVSPost2010Prop32
280
     0
102
RTVSPost2010PropOp32
 70
     0
102
RTVSPost2010Prop33
280
     0
102
RTVSPost2010PropOp33
 70
     0
102
RTVSPost2010Prop34
280
     0
102
RTVSPost2010PropOp34
 70
     0
102
RTVSPost2010Prop35
280
     0
102
RTVSPost2010PropOp35
 70
     0
102
RTVSPost2010Prop36
280
     0
102
RTVSPost2010PropOp36
 70
     0
102
RTVSPost2010Prop37
 90
       50
102
RTVSPost2010PropOp37
 70
     0
102
RTVSPost2010Prop38
140
0.0
102
RTVSPost2010PropOp38
 70
     0
102
RTVSPost2010Prop39
140
1.0
102
RTVSPost2010PropOp39
 70
     0
102
RTVSPost2010Prop40
 90
        0
102
RTVSPost2010PropOp40
 70
     0
102
RTVSPost2010Prop41ColorIndex
 90
       18
102
RTVSPost2010Prop41ColorRGB
 90
        0
102
RTVSPost2010PropOp41
 70
     0
102
RTVSPost2010Prop42
 90
       50
102
RTVSPost2010PropOp42
 70
     0
102
RTVSPost2010Prop43
 90
        3
102
RTVSPost2010PropOp43
 70
     0
102
RTVSPost2010Prop44ColorIndex
 90
        5
102
RTVSPost2010Prop44ColorRGB
 90
      255
102
RTVSPost2010PropOp44
 70
     0
102
RTVSPost2010Prop45
280
     0
102
RTVSPost2010PropOp45
 70
     0
102
RTVSPost2010Prop46
 90
       50
102
RTVSPost2010PropOp46
 70
     0
102
RTVSPost2010Prop47
 90
       50
102
RTVSPost2010PropOp47
 70
     0
102
RTVSPost2010Prop48
 90
       50
102
RTVSPost2010PropOp48
 70
     0
102
RTVSPost2010Prop49
280
     0
102
RTVSPost2010PropOp49
 70
     0
102
RTVSPost2010Prop50
 90
       50
102
RTVSPost2010PropOp50
 70
     0
102
RTVSPost2010Prop51ColorIndex
 90
      256
102
RTVSPost2010Prop51ColorRGB
 90
-16777216
102
RTVSPost2010PropOp51
 70
     0
102
RTVSPost2010Prop52
140
1.0
102
RTVSPost2010PropOp52
 70
     0
102
RTVSPost2010Prop53
 90
        2
102
RTVSPost2010PropOp53
 70
     0
102
RTVSPost2010Prop54
  1
strokes_ogs.tif
102
RTVSPost2010PropOp54
 70
     0
102
RTVSPost2010Prop55
280
     0
102
RTVSPost2010PropOp55
 70
     0
102
RTVSPost2010Prop56
140
1.0
102
RTVSPost2010PropOp56
 70
     0
102
RTVSPost2010Prop57
140
1.0
102
RTVSPost2010PropOp57
 70
     0
  0
XRECORD
  5
4D9
102
{ACAD_REACTORS
330
4D8
102
}
330
4D8
100
AcDbXrecord
280
     1
102
RTVSPost2010Prop28
280
     0
102
RTVSPost2010PropOp28
 70
     1
102
RTVSPost2010Prop29
280
     1
102
RTVSPost2010PropOp29
 70
     1
102
RTVSPost2010Prop30
280
     1
102
RTVSPost2010PropOp30
 70
     1
102
RTVSPost2010Prop31
280
     0
102
RTVSPost2010PropOp31
 70
     1
102
RTVSPost2010Prop32
280
     0
102
RTVSPost2010PropOp32
 70
     1
102
RTVSPost2010Prop33
280
     0
102
RTVSPost2010PropOp33
 70
     1
102
RTVSPost2010Prop34
280
     0
102
RTVSPost2010PropOp34
 70
     1
102
RTVSPost2010Prop35
280
     0
102
RTVSPost2010PropOp35
 70
     1
102
RTVSPost2010Prop36
280
     0
102
RTVSPost2010PropOp36
 70
     1
102
RTVSPost2010Prop37
 90
       50
102
RTVSPost2010PropOp37
 70
     1
102
RTVSPost2010Prop38
140
0.0
102
RTVSPost2010PropOp38
 70
     1
102
RTVSPost2010Prop39
140
1.0
102
RTVSPost2010PropOp39
 70
     1
102
RTVSPost2010Prop40
 90
        0
102
RTVSPost2010PropOp40
 70
     1
102
RTVSPost2010Prop41ColorIndex
 90
       18
102
RTVSPost2010Prop41ColorRGB
 90
        0
102
RTVSPost2010PropOp41
 70
     1
102
RTVSPost2010Prop42
 90
       50
102
RTVSPost2010PropOp42
 70
     1
102
RTVSPost2010Prop43
 90
        3
102
RTVSPost2010PropOp43
 70
     1
102
RTVSPost2010Prop44ColorIndex
 90
        5
102
RTVSPost2010Prop44ColorRGB
 90
      255
102
RTVSPost2010PropOp44
 70
     1
102
RTVSPost2010Prop45
280
     0
102
RTVSPost2010PropOp45
 70
     1
102
RTVSPost2010Prop46
 90
       50
102
RTVSPost2010PropOp46
 70
     1
102
RTVSPost2010Prop47
 90
       50
102
RTVSPost2010PropOp47
 70
     1
102
RTVSPost2010Prop48
 90
       50
102
RTVSPost2010PropOp48
 70
     1
102
RTVSPost2010Prop49
280
     0
102
RTVSPost2010PropOp49
 70
     1
102
RTVSPost2010Prop50
 90
       50
102
RTVSPost2010PropOp50
 70
     1
102
RTVSPost2010Prop51ColorIndex
 90
      256
102
RTVSPost2010Prop51ColorRGB
 90
-16777216
102
RTVSPost2010PropOp51
 70
     0
102
RTVSPost2010Prop52
140
1.0
102
RTVSPost2010PropOp52
 70
     0
102
RTVSPost2010Prop53
 90
        2
102
RTVSPost2010PropOp53
 70
     1
102
RTVSPost2010Prop54
  1
strokes_ogs.tif
102
RTVSPost2010PropOp54
 70
     1
102
RTVSPost2010Prop55
280
     0
102
RTVSPost2010PropOp55
 70
     1
102
RTVSPost2010Prop56
140
1.0
102
RTVSPost2010PropOp56
 70
     1
102
RTVSPost2010Prop57
140
1.0
102
RTVSPost2010PropOp57
 70
     1
  0
XRECORD
  5
4EB
102
{ACAD_REACTORS
330
4EA
102
}
330
4EA
100
AcDbXrecord
280
     1
102
RTVSPost2010Prop28
280
     0
102
RTVSPost2010PropOp28
 70
     0
102
RTVSPost2010Prop29
280
     1
102
RTVSPost2010PropOp29
 70
     0
102
RTVSPost2010Prop30
280
     1
102
RTVSPost2010PropOp30
 70
     0
102
RTVSPost2010Prop31
280
     0
102
RTVSPost2010PropOp31
 70
     0
102
RTVSPost2010Prop32
280
     0
102
RTVSPost2010PropOp32
 70
     0
102
RTVSPost2010Prop33
280
     0
102
RTVSPost2010PropOp33
 70
     0
102
RTVSPost2010Prop34
280
     0
102
RTVSPost2010PropOp34
 70
     0
102
RTVSPost2010Prop35
280
     0
102
RTVSPost2010PropOp35
 70
     0
102
RTVSPost2010Prop36
280
     0
102
RTVSPost2010PropOp36
 70
     0
102
RTVSPost2010Prop37
 90
       50
102
RTVSPost2010PropOp37
 70
     0
102
RTVSPost2010Prop38
140
0.0
102
RTVSPost2010PropOp38
 70
     0
102
RTVSPost2010Prop39
140
1.0
102
RTVSPost2010PropOp39
 70
     0
102
RTVSPost2010Prop40
 90
        0
102
RTVSPost2010PropOp40
 70
     0
102
RTVSPost2010Prop41ColorIndex
 90
       18
102
RTVSPost2010Prop41ColorRGB
 90
        0
102
RTVSPost2010PropOp41
 70
     0
102
RTVSPost2010Prop42
 90
       50
102
RTVSPost2010PropOp42
 70
     0
102
RTVSPost2010Prop43
 90
        3
102
RTVSPost2010PropOp43
 70
     0
102
RTVSPost2010Prop44ColorIndex
 90
        5
102
RTVSPost2010Prop44ColorRGB
 90
      255
102
RTVSPost2010PropOp44
 70
     0
102
RTVSPost2010Prop45
280
     0
102
RTVSPost2010PropOp45
 70
     0
102
RTVSPost2010Prop46
 90
       50
102
RTVSPost2010PropOp46
 70
     0
102
RTVSPost2010Prop47
 90
       50
102
RTVSPost2010PropOp47
 70
     0
102
RTVSPost2010Prop48
 90
       50
102
RTVSPost2010PropOp48
 70
     0
102
RTVSPost2010Prop49
280
     0
102
RTVSPost2010PropOp49
 70
     0
102
RTVSPost2010Prop50
 90
       50
102
RTVSPost2010PropOp50
 70
     0
102
RTVSPost2010Prop51ColorIndex
 90
      256
102
RTVSPost2010Prop51ColorRGB
 90
-16777216
102
RTVSPost2010PropOp51
 70
     0
102
RTVSPost2010Prop52
140
1.0
102
RTVSPost2010PropOp52
 70
     0
102
RTVSPost2010Prop53
 90
        2
102
RTVSPost2010PropOp53
 70
     0
102
RTVSPost2010Prop54
  1
strokes_ogs.tif
102
RTVSPost2010PropOp54
 70
     0
102
RTVSPost2010Prop55
280
     0
102
RTVSPost2010PropOp55
 70
     0
102
RTVSPost2010Prop56
140
1.0
102
RTVSPost2010PropOp56
 70
     0
102
RTVSPost2010Prop57
140
1.0
102
RTVSPost2010PropOp57
 70
     0
  0
XRECORD
  5
4D1
102
{ACAD_REACTORS
330
4D0
102
}
330
4D0
100
AcDbXrecord
280
     1
102
RTVSPost2010Prop28
280
     0
102
RTVSPost2010PropOp28
 70
     1
102
RTVSPost2010Prop29
280
     1
102
RTVSPost2010PropOp29
 70
     1
102
RTVSPost2010Prop30
280
     1
102
RTVSPost2010PropOp30
 70
     1
102
RTVSPost2010Prop31
280
     0
102
RTVSPost2010PropOp31
 70
     1
102
RTVSPost2010Prop32
280
     0
102
RTVSPost2010PropOp32
 70
     1
102
RTVSPost2010Prop33
280
     0
102
RTVSPost2010PropOp33
 70
     1
102
RTVSPost2010Prop34
280
     0
102
RTVSPost2010PropOp34
 70
     1
102
RTVSPost2010Prop35
280
     0
102
RTVSPost2010PropOp35
 70
     1
102
RTVSPost2010Prop36
280
     0
102
RTVSPost2010PropOp36
 70
     1
102
RTVSPost2010Prop37
 90
       50
102
RTVSPost2010PropOp37
 70
     1
102
RTVSPost2010Prop38
140
0.0
102
RTVSPost2010PropOp38
 70
     1
102
RTVSPost2010Prop39
140
1.0
102
RTVSPost2010PropOp39
 70
     1
102
RTVSPost2010Prop40
 90
        0
102
RTVSPost2010PropOp40
 70
     1
102
RTVSPost2010Prop41ColorIndex
 90
       18
102
RTVSPost2010Prop41ColorRGB
 90
        0
102
RTVSPost2010PropOp41
 70
     1
102
RTVSPost2010Prop42
 90
       50
102
RTVSPost2010PropOp42
 70
     1
102
RTVSPost2010Prop43
 90
        3
102
RTVSPost2010PropOp43
 70
     1
102
RTVSPost2010Prop44ColorIndex
 90
        5
102
RTVSPost2010Prop44ColorRGB
 90
      255
102
RTVSPost2010PropOp44
 70
     1
102
RTVSPost2010Prop45
280
     0
102
RTVSPost2010PropOp45
 70
     1
102
RTVSPost2010Prop46
 90
       50
102
RTVSPost2010PropOp46
 70
     1
102
RTVSPost2010Prop47
 90
       50
102
RTVSPost2010PropOp47
 70
     1
102
RTVSPost2010Prop48
 90
       50
102
RTVSPost2010PropOp48
 70
     1
102
RTVSPost2010Prop49
280
     0
102
RTVSPost2010PropOp49
 70
     1
102
RTVSPost2010Prop50
 90
       50
102
RTVSPost2010PropOp50
 70
     1
102
RTVSPost2010Prop51ColorIndex
 90
      256
102
RTVSPost2010Prop51ColorRGB
 90
-16777216
102
RTVSPost2010PropOp51
 70
     0
102
RTVSPost2010Prop52
140
1.0
102
RTVSPost2010PropOp52
 70
     0
102
RTVSPost2010Prop53
 90
        2
102
RTVSPost2010PropOp53
 70
     1
102
RTVSPost2010Prop54
  1
strokes_ogs.tif
102
RTVSPost2010PropOp54
 70
     1
102
RTVSPost2010Prop55
280
     0
102
RTVSPost2010PropOp55
 70
     1
102
RTVSPost2010Prop56
140
1.0
102
RTVSPost2010PropOp56
 70
     1
102
RTVSPost2010Prop57
140
1.0
102
RTVSPost2010PropOp57
 70
     1
  0
XRECORD
  5
4E7
102
{ACAD_REACTORS
330
4E6
102
}
330
4E6
100
AcDbXrecord
280
     1
102
RTVSPost2010Prop28
280
     0
102
RTVSPost2010PropOp28
 70
     1
102
RTVSPost2010Prop29
280
     1
102
RTVSPost2010PropOp29
 70
     1
102
RTVSPost2010Prop30
280
     1
102
RTVSPost2010PropOp30
 70
     1
102
RTVSPost2010Prop31
280
     0
102
RTVSPost2010PropOp31
 70
     1
102
RTVSPost2010Prop32
280
     0
102
RTVSPost2010PropOp32
 70
     1
102
RTVSPost2010Prop33
280
     0
102
RTVSPost2010PropOp33
 70
     1
102
RTVSPost2010Prop34
280
     0
102
RTVSPost2010PropOp34
 70
     1
102
RTVSPost2010Prop35
280
     0
102
RTVSPost2010PropOp35
 70
     1
102
RTVSPost2010Prop36
280
     0
102
RTVSPost2010PropOp36
 70
     1
102
RTVSPost2010Prop37
 90
       50
102
RTVSPost2010PropOp37
 70
     1
102
RTVSPost2010Prop38
140
0.0
102
RTVSPost2010PropOp38
 70
     1
102
RTVSPost2010Prop39
140
1.0
102
RTVSPost2010PropOp39
 70
     1
102
RTVSPost2010Prop40
 90
        0
102
RTVSPost2010PropOp40
 70
     1
102
RTVSPost2010Prop41ColorIndex
 90
       18
102
RTVSPost2010Prop41ColorRGB
 90
        0
102
RTVSPost2010PropOp41
 70
     1
102
RTVSPost2010Prop42
 90
       50
102
RTVSPost2010PropOp42
 70
     1
102
RTVSPost2010Prop43
 90
        3
102
RTVSPost2010PropOp43
 70
     1
102
RTVSPost2010Prop44ColorIndex
 90
        5
102
RTVSPost2010Prop44ColorRGB
 90
      255
102
RTVSPost2010PropOp44
 70
     1
102
RTVSPost2010Prop45
280
     0
102
RTVSPost2010PropOp45
 70
     1
102
RTVSPost2010Prop46
 90
       50
102
RTVSPost2010PropOp46
 70
     1
102
RTVSPost2010Prop47
 90
       50
102
RTVSPost2010PropOp47
 70
     1
102
RTVSPost2010Prop48
 90
       50
102
RTVSPost2010PropOp48
 70
     1
102
RTVSPost2010Prop49
280
     0
102
RTVSPost2010PropOp49
 70
     1
102
RTVSPost2010Prop50
 90
       50
102
RTVSPost2010PropOp50
 70
     1
102
RTVSPost2010Prop51ColorIndex
 90
      256
102
RTVSPost2010Prop51ColorRGB
 90
-16777216
102
RTVSPost2010PropOp51
 70
     0
102
RTVSPost2010Prop52
140
1.0
102
RTVSPost2010PropOp52
 70
     0
102
RTVSPost2010Prop53
 90
        2
102
RTVSPost2010PropOp53
 70
     1
102
RTVSPost2010Prop54
  1
strokes_ogs.tif
102
RTVSPost2010PropOp54
 70
     1
102
RTVSPost2010Prop55
280
     0
102
RTVSPost2010PropOp55
 70
     1
102
RTVSPost2010Prop56
140
1.0
102
RTVSPost2010PropOp56
 70
     1
102
RTVSPost2010Prop57
140
1.0
102
RTVSPost2010PropOp57
 70
     1
  0
XRECORD
  5
4E5
102
{ACAD_REACTORS
330
4E4
102
}
330
4E4
100
AcDbXrecord
280
     1
102
RTVSPost2010Prop28
280
     0
102
RTVSPost2010PropOp28
 70
     1
102
RTVSPost2010Prop29
280
     1
102
RTVSPost2010PropOp29
 70
     1
102
RTVSPost2010Prop30
280
     1
102
RTVSPost2010PropOp30
 70
     1
102
RTVSPost2010Prop31
280
     0
102
RTVSPost2010PropOp31
 70
     1
102
RTVSPost2010Prop32
280
     0
102
RTVSPost2010PropOp32
 70
     1
102
RTVSPost2010Prop33
280
     0
102
RTVSPost2010PropOp33
 70
     1
102
RTVSPost2010Prop34
280
     0
102
RTVSPost2010PropOp34
 70
     1
102
RTVSPost2010Prop35
280
     0
102
RTVSPost2010PropOp35
 70
     1
102
RTVSPost2010Prop36
280
     0
102
RTVSPost2010PropOp36
 70
     1
102
RTVSPost2010Prop37
 90
       50
102
RTVSPost2010PropOp37
 70
     1
102
RTVSPost2010Prop38
140
0.0
102
RTVSPost2010PropOp38
 70
     1
102
RTVSPost2010Prop39
140
1.0
102
RTVSPost2010PropOp39
 70
     1
102
RTVSPost2010Prop40
 90
        0
102
RTVSPost2010PropOp40
 70
     1
102
RTVSPost2010Prop41ColorIndex
 90
       18
102
RTVSPost2010Prop41ColorRGB
 90
        0
102
RTVSPost2010PropOp41
 70
     1
102
RTVSPost2010Prop42
 90
       50
102
RTVSPost2010PropOp42
 70
     1
102
RTVSPost2010Prop43
 90
        3
102
RTVSPost2010PropOp43
 70
     1
102
RTVSPost2010Prop44ColorIndex
 90
        5
102
RTVSPost2010Prop44ColorRGB
 90
      255
102
RTVSPost2010PropOp44
 70
     1
102
RTVSPost2010Prop45
280
     0
102
RTVSPost2010PropOp45
 70
     1
102
RTVSPost2010Prop46
 90
       50
102
RTVSPost2010PropOp46
 70
     1
102
RTVSPost2010Prop47
 90
       50
102
RTVSPost2010PropOp47
 70
     1
102
RTVSPost2010Prop48
 90
       50
102
RTVSPost2010PropOp48
 70
     1
102
RTVSPost2010Prop49
280
     0
102
RTVSPost2010PropOp49
 70
     1
102
RTVSPost2010Prop50
 90
       50
102
RTVSPost2010PropOp50
 70
     1
102
RTVSPost2010Prop51ColorIndex
 90
      256
102
RTVSPost2010Prop51ColorRGB
 90
-16777216
102
RTVSPost2010PropOp51
 70
     0
102
RTVSPost2010Prop52
140
1.0
102
RTVSPost2010PropOp52
 70
     0
102
RTVSPost2010Prop53
 90
        2
102
RTVSPost2010PropOp53
 70
     1
102
RTVSPost2010Prop54
  1
strokes_ogs.tif
102
RTVSPost2010PropOp54
 70
     1
102
RTVSPost2010Prop55
280
     0
102
RTVSPost2010PropOp55
 70
     1
102
RTVSPost2010Prop56
140
1.0
102
RTVSPost2010PropOp56
 70
     1
102
RTVSPost2010Prop57
140
1.0
102
RTVSPost2010PropOp57
 70
     1
  0
XRECORD
  5
4DF
102
{ACAD_REACTORS
330
4DE
102
}
330
4DE
100
AcDbXrecord
280
     1
102
RTVSPost2010Prop28
280
     0
102
RTVSPost2010PropOp28
 70
     1
102
RTVSPost2010Prop29
280
     1
102
RTVSPost2010PropOp29
 70
     1
102
RTVSPost2010Prop30
280
     1
102
RTVSPost2010PropOp30
 70
     1
102
RTVSPost2010Prop31
280
     0
102
RTVSPost2010PropOp31
 70
     1
102
RTVSPost2010Prop32
280
     0
102
RTVSPost2010PropOp32
 70
     1
102
RTVSPost2010Prop33
280
     0
102
RTVSPost2010PropOp33
 70
     1
102
RTVSPost2010Prop34
280
     0
102
RTVSPost2010PropOp34
 70
     1
102
RTVSPost2010Prop35
280
     0
102
RTVSPost2010PropOp35
 70
     1
102
RTVSPost2010Prop36
280
     0
102
RTVSPost2010PropOp36
 70
     1
102
RTVSPost2010Prop37
 90
       50
102
RTVSPost2010PropOp37
 70
     1
102
RTVSPost2010Prop38
140
0.0
102
RTVSPost2010PropOp38
 70
     1
102
RTVSPost2010Prop39
140
1.0
102
RTVSPost2010PropOp39
 70
     1
102
RTVSPost2010Prop40
 90
        0
102
RTVSPost2010PropOp40
 70
     1
102
RTVSPost2010Prop41ColorIndex
 90
       18
102
RTVSPost2010Prop41ColorRGB
 90
        0
102
RTVSPost2010PropOp41
 70
     1
102
RTVSPost2010Prop42
 90
       50
102
RTVSPost2010PropOp42
 70
     1
102
RTVSPost2010Prop43
 90
        3
102
RTVSPost2010PropOp43
 70
     1
102
RTVSPost2010Prop44ColorIndex
 90
        5
102
RTVSPost2010Prop44ColorRGB
 90
      255
102
RTVSPost2010PropOp44
 70
     1
102
RTVSPost2010Prop45
280
     0
102
RTVSPost2010PropOp45
 70
     1
102
RTVSPost2010Prop46
 90
       50
102
RTVSPost2010PropOp46
 70
     1
102
RTVSPost2010Prop47
 90
       50
102
RTVSPost2010PropOp47
 70
     1
102
RTVSPost2010Prop48
 90
       50
102
RTVSPost2010PropOp48
 70
     1
102
RTVSPost2010Prop49
280
     0
102
RTVSPost2010PropOp49
 70
     1
102
RTVSPost2010Prop50
 90
       50
102
RTVSPost2010PropOp50
 70
     1
102
RTVSPost2010Prop51ColorIndex
 90
      256
102
RTVSPost2010Prop51ColorRGB
 90
-16777216
102
RTVSPost2010PropOp51
 70
     0
102
RTVSPost2010Prop52
140
1.0
102
RTVSPost2010PropOp52
 70
     0
102
RTVSPost2010Prop53
 90
        2
102
RTVSPost2010PropOp53
 70
     1
102
RTVSPost2010Prop54
  1
strokes_ogs.tif
102
RTVSPost2010PropOp54
 70
     1
102
RTVSPost2010Prop55
280
     0
102
RTVSPost2010PropOp55
 70
     1
102
RTVSPost2010Prop56
140
1.0
102
RTVSPost2010PropOp56
 70
     1
102
RTVSPost2010Prop57
140
1.0
102
RTVSPost2010PropOp57
 70
     1
  0
XRECORD
  5
4E1
102
{ACAD_REACTORS
330
4E0
102
}
330
4E0
100
AcDbXrecord
280
     1
102
RTVSPost2010Prop28
280
     0
102
RTVSPost2010PropOp28
 70
     1
102
RTVSPost2010Prop29
280
     1
102
RTVSPost2010PropOp29
 70
     1
102
RTVSPost2010Prop30
280
     1
102
RTVSPost2010PropOp30
 70
     1
102
RTVSPost2010Prop31
280
     0
102
RTVSPost2010PropOp31
 70
     1
102
RTVSPost2010Prop32
280
     0
102
RTVSPost2010PropOp32
 70
     1
102
RTVSPost2010Prop33
280
     0
102
RTVSPost2010PropOp33
 70
     1
102
RTVSPost2010Prop34
280
     0
102
RTVSPost2010PropOp34
 70
     1
102
RTVSPost2010Prop35
280
     0
102
RTVSPost2010PropOp35
 70
     1
102
RTVSPost2010Prop36
280
     0
102
RTVSPost2010PropOp36
 70
     1
102
RTVSPost2010Prop37
 90
       50
102
RTVSPost2010PropOp37
 70
     1
102
RTVSPost2010Prop38
140
0.0
102
RTVSPost2010PropOp38
 70
     1
102
RTVSPost2010Prop39
140
1.0
102
RTVSPost2010PropOp39
 70
     1
102
RTVSPost2010Prop40
 90
        0
102
RTVSPost2010PropOp40
 70
     1
102
RTVSPost2010Prop41ColorIndex
 90
       18
102
RTVSPost2010Prop41ColorRGB
 90
        0
102
RTVSPost2010PropOp41
 70
     1
102
RTVSPost2010Prop42
 90
       50
102
RTVSPost2010PropOp42
 70
     1
102
RTVSPost2010Prop43
 90
        3
102
RTVSPost2010PropOp43
 70
     1
102
RTVSPost2010Prop44ColorIndex
 90
        5
102
RTVSPost2010Prop44ColorRGB
 90
      255
102
RTVSPost2010PropOp44
 70
     1
102
RTVSPost2010Prop45
280
     0
102
RTVSPost2010PropOp45
 70
     1
102
RTVSPost2010Prop46
 90
       50
102
RTVSPost2010PropOp46
 70
     1
102
RTVSPost2010Prop47
 90
       50
102
RTVSPost2010PropOp47
 70
     1
102
RTVSPost2010Prop48
 90
       50
102
RTVSPost2010PropOp48
 70
     1
102
RTVSPost2010Prop49
280
     0
102
RTVSPost2010PropOp49
 70
     1
102
RTVSPost2010Prop50
 90
       50
102
RTVSPost2010PropOp50
 70
     1
102
RTVSPost2010Prop51ColorIndex
 90
      256
102
RTVSPost2010Prop51ColorRGB
 90
-16777216
102
RTVSPost2010PropOp51
 70
     0
102
RTVSPost2010Prop52
140
1.0
102
RTVSPost2010PropOp52
 70
     0
102
RTVSPost2010Prop53
 90
        2
102
RTVSPost2010PropOp53
 70
     1
102
RTVSPost2010Prop54
  1
strokes_ogs.tif
102
RTVSPost2010PropOp54
 70
     1
102
RTVSPost2010Prop55
280
     0
102
RTVSPost2010PropOp55
 70
     1
102
RTVSPost2010Prop56
140
1.0
102
RTVSPost2010PropOp56
 70
     1
102
RTVSPost2010Prop57
140
1.0
102
RTVSPost2010PropOp57
 70
     1
  0
XRECORD
  5
4D7
102
{ACAD_REACTORS
330
4D6
102
}
330
4D6
100
AcDbXrecord
280
     1
102
RTVSPost2010Prop28
280
     0
102
RTVSPost2010PropOp28
 70
     1
102
RTVSPost2010Prop29
280
     1
102
RTVSPost2010PropOp29
 70
     1
102
RTVSPost2010Prop30
280
     1
102
RTVSPost2010PropOp30
 70
     1
102
RTVSPost2010Prop31
280
     0
102
RTVSPost2010PropOp31
 70
     1
102
RTVSPost2010Prop32
280
     0
102
RTVSPost2010PropOp32
 70
     1
102
RTVSPost2010Prop33
280
     0
102
RTVSPost2010PropOp33
 70
     1
102
RTVSPost2010Prop34
280
     0
102
RTVSPost2010PropOp34
 70
     1
102
RTVSPost2010Prop35
280
     0
102
RTVSPost2010PropOp35
 70
     1
102
RTVSPost2010Prop36
280
     0
102
RTVSPost2010PropOp36
 70
     1
102
RTVSPost2010Prop37
 90
       50
102
RTVSPost2010PropOp37
 70
     1
102
RTVSPost2010Prop38
140
0.0
102
RTVSPost2010PropOp38
 70
     1
102
RTVSPost2010Prop39
140
1.0
102
RTVSPost2010PropOp39
 70
     1
102
RTVSPost2010Prop40
 90
        0
102
RTVSPost2010PropOp40
 70
     1
102
RTVSPost2010Prop41ColorIndex
 90
       18
102
RTVSPost2010Prop41ColorRGB
 90
        0
102
RTVSPost2010PropOp41
 70
     1
102
RTVSPost2010Prop42
 90
       50
102
RTVSPost2010PropOp42
 70
     1
102
RTVSPost2010Prop43
 90
        3
102
RTVSPost2010PropOp43
 70
     1
102
RTVSPost2010Prop44ColorIndex
 90
        5
102
RTVSPost2010Prop44ColorRGB
 90
      255
102
RTVSPost2010PropOp44
 70
     1
102
RTVSPost2010Prop45
280
     0
102
RTVSPost2010PropOp45
 70
     1
102
RTVSPost2010Prop46
 90
       50
102
RTVSPost2010PropOp46
 70
     1
102
RTVSPost2010Prop47
 90
       50
102
RTVSPost2010PropOp47
 70
     1
102
RTVSPost2010Prop48
 90
       50
102
RTVSPost2010PropOp48
 70
     1
102
RTVSPost2010Prop49
280
     0
102
RTVSPost2010PropOp49
 70
     1
102
RTVSPost2010Prop50
 90
       50
102
RTVSPost2010PropOp50
 70
     1
102
RTVSPost2010Prop51ColorIndex
 90
      256
102
RTVSPost2010Prop51ColorRGB
 90
-16777216
102
RTVSPost2010PropOp51
 70
     0
102
RTVSPost2010Prop52
140
1.0
102
RTVSPost2010PropOp52
 70
     0
102
RTVSPost2010Prop53
 90
        2
102
RTVSPost2010PropOp53
 70
     1
102
RTVSPost2010Prop54
  1
strokes_ogs.tif
102
RTVSPost2010PropOp54
 70
     1
102
RTVSPost2010Prop55
280
     0
102
RTVSPost2010PropOp55
 70
     1
102
RTVSPost2010Prop56
140
1.0
102
RTVSPost2010PropOp56
 70
     1
102
RTVSPost2010Prop57
140
1.0
102
RTVSPost2010PropOp57
 70
     1
  0
XRECORD
  5
4CB
102
{ACAD_REACTORS
330
4CA
102
}
330
4CA
100
AcDbXrecord
280
     1
102
RTVSPost2010Prop28
280
     0
102
RTVSPost2010PropOp28
 70
     1
102
RTVSPost2010Prop29
280
     1
102
RTVSPost2010PropOp29
 70
     1
102
RTVSPost2010Prop30
280
     1
102
RTVSPost2010PropOp30
 70
     1
102
RTVSPost2010Prop31
280
     0
102
RTVSPost2010PropOp31
 70
     1
102
RTVSPost2010Prop32
280
     0
102
RTVSPost2010PropOp32
 70
     1
102
RTVSPost2010Prop33
280
     0
102
RTVSPost2010PropOp33
 70
     1
102
RTVSPost2010Prop34
280
     0
102
RTVSPost2010PropOp34
 70
     1
102
RTVSPost2010Prop35
280
     0
102
RTVSPost2010PropOp35
 70
     1
102
RTVSPost2010Prop36
280
     0
102
RTVSPost2010PropOp36
 70
     1
102
RTVSPost2010Prop37
 90
       50
102
RTVSPost2010PropOp37
 70
     1
102
RTVSPost2010Prop38
140
0.0
102
RTVSPost2010PropOp38
 70
     1
102
RTVSPost2010Prop39
140
1.0
102
RTVSPost2010PropOp39
 70
     1
102
RTVSPost2010Prop40
 90
        0
102
RTVSPost2010PropOp40
 70
     1
102
RTVSPost2010Prop41ColorIndex
 90
       18
102
RTVSPost2010Prop41ColorRGB
 90
        0
102
RTVSPost2010PropOp41
 70
     1
102
RTVSPost2010Prop42
 90
       50
102
RTVSPost2010PropOp42
 70
     1
102
RTVSPost2010Prop43
 90
        3
102
RTVSPost2010PropOp43
 70
     1
102
RTVSPost2010Prop44ColorIndex
 90
        5
102
RTVSPost2010Prop44ColorRGB
 90
      255
102
RTVSPost2010PropOp44
 70
     1
102
RTVSPost2010Prop45
280
     0
102
RTVSPost2010PropOp45
 70
     1
102
RTVSPost2010Prop46
 90
       50
102
RTVSPost2010PropOp46
 70
     1
102
RTVSPost2010Prop47
 90
       50
102
RTVSPost2010PropOp47
 70
     1
102
RTVSPost2010Prop48
 90
       50
102
RTVSPost2010PropOp48
 70
     1
102
RTVSPost2010Prop49
280
     0
102
RTVSPost2010PropOp49
 70
     1
102
RTVSPost2010Prop50
 90
       50
102
RTVSPost2010PropOp50
 70
     1
102
RTVSPost2010Prop51ColorIndex
 90
      256
102
RTVSPost2010Prop51ColorRGB
 90
-16777216
102
RTVSPost2010PropOp51
 70
     0
102
RTVSPost2010Prop52
140
1.0
102
RTVSPost2010PropOp52
 70
     0
102
RTVSPost2010Prop53
 90
        2
102
RTVSPost2010PropOp53
 70
     1
102
RTVSPost2010Prop54
  1
strokes_ogs.tif
102
RTVSPost2010PropOp54
 70
     1
102
RTVSPost2010Prop55
280
     0
102
RTVSPost2010PropOp55
 70
     1
102
RTVSPost2010Prop56
140
1.0
102
RTVSPost2010PropOp56
 70
     1
102
RTVSPost2010Prop57
140
1.0
102
RTVSPost2010PropOp57
 70
     1
  0
XRECORD
  5
4E3
102
{ACAD_REACTORS
330
4E2
102
}
330
4E2
100
AcDbXrecord
280
     1
102
RTVSPost2010Prop28
280
     0
102
RTVSPost2010PropOp28
 70
     1
102
RTVSPost2010Prop29
280
     1
102
RTVSPost2010PropOp29
 70
     1
102
RTVSPost2010Prop30
280
     1
102
RTVSPost2010PropOp30
 70
     1
102
RTVSPost2010Prop31
280
     0
102
RTVSPost2010PropOp31
 70
     1
102
RTVSPost2010Prop32
280
     0
102
RTVSPost2010PropOp32
 70
     1
102
RTVSPost2010Prop33
280
     0
102
RTVSPost2010PropOp33
 70
     1
102
RTVSPost2010Prop34
280
     0
102
RTVSPost2010PropOp34
 70
     1
102
RTVSPost2010Prop35
280
     0
102
RTVSPost2010PropOp35
 70
     1
102
RTVSPost2010Prop36
280
     0
102
RTVSPost2010PropOp36
 70
     1
102
RTVSPost2010Prop37
 90
       50
102
RTVSPost2010PropOp37
 70
     1
102
RTVSPost2010Prop38
140
0.0
102
RTVSPost2010PropOp38
 70
     1
102
RTVSPost2010Prop39
140
1.0
102
RTVSPost2010PropOp39
 70
     1
102
RTVSPost2010Prop40
 90
        0
102
RTVSPost2010PropOp40
 70
     1
102
RTVSPost2010Prop41ColorIndex
 90
       18
102
RTVSPost2010Prop41ColorRGB
 90
        0
102
RTVSPost2010PropOp41
 70
     1
102
RTVSPost2010Prop42
 90
       50
102
RTVSPost2010PropOp42
 70
     1
102
RTVSPost2010Prop43
 90
        3
102
RTVSPost2010PropOp43
 70
     1
102
RTVSPost2010Prop44ColorIndex
 90
        5
102
RTVSPost2010Prop44ColorRGB
 90
      255
102
RTVSPost2010PropOp44
 70
     1
102
RTVSPost2010Prop45
280
     0
102
RTVSPost2010PropOp45
 70
     1
102
RTVSPost2010Prop46
 90
       50
102
RTVSPost2010PropOp46
 70
     1
102
RTVSPost2010Prop47
 90
       50
102
RTVSPost2010PropOp47
 70
     1
102
RTVSPost2010Prop48
 90
       50
102
RTVSPost2010PropOp48
 70
     1
102
RTVSPost2010Prop49
280
     0
102
RTVSPost2010PropOp49
 70
     1
102
RTVSPost2010Prop50
 90
       50
102
RTVSPost2010PropOp50
 70
     1
102
RTVSPost2010Prop51ColorIndex
 90
      256
102
RTVSPost2010Prop51ColorRGB
 90
-16777216
102
RTVSPost2010PropOp51
 70
     0
102
RTVSPost2010Prop52
140
1.0
102
RTVSPost2010PropOp52
 70
     0
102
RTVSPost2010Prop53
 90
        2
102
RTVSPost2010PropOp53
 70
     1
102
RTVSPost2010Prop54
  1
strokes_ogs.tif
102
RTVSPost2010PropOp54
 70
     1
102
RTVSPost2010Prop55
280
     0
102
RTVSPost2010PropOp55
 70
     1
102
RTVSPost2010Prop56
140
1.0
102
RTVSPost2010PropOp56
 70
     1
102
RTVSPost2010Prop57
140
1.0
102
RTVSPost2010PropOp57
 70
     1
  0
ENDSEC
  0
EOF
